<?xml version="1.0" standalone="no"?>
  <!DOCTYPE svg PUBLIC "-//W3C//DTD SVG 1.1//EN" "http://www.w3.org/Graphics/SVG/1.1/DTD/svg11.dtd" >
  <svg>
  <metadata>
  Created by font-carrier
  </metadata>
  <defs>
  <font id="Jost-Bold" horiz-adv-x="1829" vert-adv-y="1829" >
    <font-face
      
      font-family="Jost*"
      
      font-weight="400"
      
      font-stretch="normal"
      
      units-per-em="1000"
      
      ascent="1070"
      
      descent="-375"
      
    />
      <missing-glyph />

      

      
      <glyph glyph-name="uni41" unicode="&#x41;" d="M544 0L736 0L368 744L-1 0L191 0L256 135L478 135ZM368 442L445 264L290 264Z"  horiz-adv-x="735" vert-adv-y="1000"  />

      
      <glyph glyph-name="unic0" unicode="&#xc0;" d="M206 954L386 804L472 847L322 1007ZM544 0L736 0L368 744L-1 0L191 0L256 135L478 135ZM368 442L445 264L290 264Z"  horiz-adv-x="735" vert-adv-y="1000"  />

      
      <glyph glyph-name="unic1" unicode="&#xc1;" d="M526 954L410 1007L260 847L346 804ZM544 0L736 0L368 744L-1 0L191 0L256 135L478 135ZM368 442L445 264L290 264Z"  horiz-adv-x="735" vert-adv-y="1000"  />

      
      <glyph glyph-name="unic2" unicode="&#xc2;" d="M368 875L459 789L565 861L368 1001L170 861L276 789ZM544 0L736 0L368 744L-1 0L191 0L256 135L478 135ZM368 442L445 264L290 264Z"  horiz-adv-x="735" vert-adv-y="1000"  />

      
      <glyph glyph-name="unic3" unicode="&#xc3;" d="M171 863L243 801C243 816 252 852 290 852C339 852 375 798 430 798C492 798 548 847 564 884L493 958C473 926 452 905 427 905C371 905 357 957 291 957C227 957 181 912 171 863ZM544 0L736 0L368 744L-1 0L191 0L256 135L478 135ZM368 442L445 264L290 264Z"  horiz-adv-x="735" vert-adv-y="1000"  />

      
      <glyph glyph-name="unic4" unicode="&#xc4;" d="M132 836C132 788 172 754 221 754C270 754 309 788 309 836C309 884 270 918 221 918C172 918 132 884 132 836ZM420 830C420 782 459 748 508 748C557 748 596 782 596 830C596 878 557 912 508 912C459 912 420 878 420 830ZM544 0L736 0L368 744L-1 0L191 0L256 135L478 135ZM368 442L445 264L290 264Z"  horiz-adv-x="735" vert-adv-y="1000"  />

      
      <glyph glyph-name="unic5" unicode="&#xc5;" d="M242 800C242 740 283 698 340 687L-1 0L191 0L256 135L478 135L544 0L736 0L396 688C452 699 493 741 493 800C493 869 437 916 367 916C297 916 242 869 242 800ZM321 800C321 830 342 848 367 848C392 848 414 830 414 800C414 770 392 753 367 753C342 753 321 770 321 800ZM368 442L445 264L290 264Z"  horiz-adv-x="735" vert-adv-y="1000"  />

      
      <glyph glyph-name="uni0100" unicode="&#x0100;" d="M182 804L553 804L553 936L182 936ZM544 0L736 0L368 744L-1 0L191 0L256 135L478 135ZM368 442L445 264L290 264Z"  horiz-adv-x="735" vert-adv-y="1000"  />

      
      <glyph glyph-name="uni0102" unicode="&#x0102;" d="M203 951C203 869 263 804 368 804C473 804 532 869 532 951L433 951C433 916 407 891 368 891C329 891 302 916 302 951ZM544 0L736 0L368 744L-1 0L191 0L256 135L478 135ZM368 442L445 264L290 264Z"  horiz-adv-x="735" vert-adv-y="1000"  />

      
      <glyph glyph-name="uni0104" unicode="&#x0104;" d="M691-111C677-124 661-131 641-131C617-131 606-119 606-94C606-63 634-28 686 0L736 0L368 744L-1 0L191 0L256 135L478 135L544 0L600 0C548-31 507-69 507-120C507-185 559-220 624-220C680-220 709-200 724-180ZM368 442L445 264L290 264Z"  horiz-adv-x="735" vert-adv-y="1000"  />

      
      <glyph glyph-name="uni42" unicode="&#x42;" d="M620 197C620 292 559 348 479 376C542 404 580 454 580 522C580 641 476 700 332 700L74 700L74 0L348 0C514 0 620 58 620 197ZM313 569C371 569 405 544 405 497C405 450 371 422 313 422L243 422L243 569ZM243 131L243 304L329 304C394 304 445 282 445 221C445 154 394 131 329 131Z"  horiz-adv-x="664" vert-adv-y="1000"  />

      
      <glyph glyph-name="uni43" unicode="&#x43;" d="M219 350C219 479 315 555 428 555C527 555 591 512 637 462L637 646C581 689 520 716 418 716C193 716 34 568 34 350C34 132 193-16 418-16C520-16 581 11 637 54L637 238C591 188 527 145 428 145C315 145 219 221 219 350Z"  horiz-adv-x="700" vert-adv-y="1000"  />

      
      <glyph glyph-name="unic7" unicode="&#xc7;" d="M219 350C219 479 315 555 428 555C527 555 591 512 637 462L637 646C581 689 520 716 418 716C193 716 34 568 34 350C34 161 154 24 333-8L270-147C305-133 343-130 353-130C384-130 413-137 413-163C413-187 393-198 359-198C339-198 305-190 280-172L234-241C281-271 323-280 379-280C442-280 510-243 510-171C510-105 458-74 418-74C405-74 393-74 382-77L425-16C523-15 582 12 637 54L637 238C591 188 527 145 428 145C315 145 219 221 219 350Z"  horiz-adv-x="700" vert-adv-y="1000"  />

      
      <glyph glyph-name="uni0106" unicode="&#x0106;" d="M548 926L432 979L282 819L368 776ZM219 350C219 479 315 555 428 555C527 555 591 512 637 462L637 646C581 689 520 716 418 716C193 716 34 568 34 350C34 132 193-16 418-16C520-16 581 11 637 54L637 238C591 188 527 145 428 145C315 145 219 221 219 350Z"  horiz-adv-x="700" vert-adv-y="1000"  />

      
      <glyph glyph-name="uni0108" unicode="&#x0108;" d="M418 862L509 776L616 848L418 988L221 848L327 776ZM219 350C219 479 315 555 428 555C527 555 591 512 637 462L637 646C581 689 520 716 418 716C193 716 34 568 34 350C34 132 193-16 418-16C520-16 581 11 637 54L637 238C591 188 527 145 428 145C315 145 219 221 219 350Z"  horiz-adv-x="700" vert-adv-y="1000"  />

      
      <glyph glyph-name="uni010A" unicode="&#x010A;" d="M305 858C305 810 344 776 393 776C442 776 481 810 481 858C481 906 442 940 393 940C344 940 305 906 305 858ZM219 350C219 479 315 555 428 555C527 555 591 512 637 462L637 646C581 689 520 716 418 716C193 716 34 568 34 350C34 132 193-16 418-16C520-16 581 11 637 54L637 238C591 188 527 145 428 145C315 145 219 221 219 350Z"  horiz-adv-x="700" vert-adv-y="1000"  />

      
      <glyph glyph-name="uni010C" unicode="&#x010C;" d="M418 902L327 988L221 916L418 776L616 916L509 988ZM219 350C219 479 315 555 428 555C527 555 591 512 637 462L637 646C581 689 520 716 418 716C193 716 34 568 34 350C34 132 193-16 418-16C520-16 581 11 637 54L637 238C591 188 527 145 428 145C315 145 219 221 219 350Z"  horiz-adv-x="700" vert-adv-y="1000"  />

      
      <glyph glyph-name="uni44" unicode="&#x44;" d="M324 0C553 0 699 135 699 350C699 565 553 700 324 700L74 700L74 0ZM318 549C426 549 524 500 524 350C524 200 426 151 318 151L249 151L249 549Z"  horiz-adv-x="733" vert-adv-y="1000"  />

      
      <glyph glyph-name="uni010E" unicode="&#x010E;" d="M375 902L284 988L178 916L375 776L573 916L467 988ZM324 0C553 0 699 135 699 350C699 565 553 700 324 700L74 700L74 0ZM318 549C426 549 524 500 524 350C524 200 426 151 318 151L249 151L249 549Z"  horiz-adv-x="733" vert-adv-y="1000"  />

      
      <glyph glyph-name="uni45" unicode="&#x45;" d="M74 700L74 0L539 0L539 139L237 139L237 299L519 299L519 436L237 436L237 561L539 561L539 700Z"  horiz-adv-x="603" vert-adv-y="1000"  />

      
      <glyph glyph-name="unic8" unicode="&#xc8;" d="M145 932L325 782L411 825L261 985ZM74 700L74 0L539 0L539 139L237 139L237 299L519 299L519 436L237 436L237 561L539 561L539 700Z"  horiz-adv-x="603" vert-adv-y="1000"  />

      
      <glyph glyph-name="unic9" unicode="&#xc9;" d="M465 932L349 985L199 825L285 782ZM74 700L74 0L539 0L539 139L237 139L237 299L519 299L519 436L237 436L237 561L539 561L539 700Z"  horiz-adv-x="603" vert-adv-y="1000"  />

      
      <glyph glyph-name="unica" unicode="&#xca;" d="M314 862L405 776L511 848L314 988L116 848L222 776ZM74 700L74 0L539 0L539 139L237 139L237 299L519 299L519 436L237 436L237 561L539 561L539 700Z"  horiz-adv-x="603" vert-adv-y="1000"  />

      
      <glyph glyph-name="unicb" unicode="&#xcb;" d="M344 866C344 818 383 784 432 784C481 784 521 818 521 866C521 914 481 948 432 948C383 948 344 914 344 866ZM101 866C101 818 140 784 189 784C238 784 277 818 277 866C277 914 238 948 189 948C140 948 101 914 101 866ZM74 700L74 0L539 0L539 139L237 139L237 299L519 299L519 436L237 436L237 561L539 561L539 700Z"  horiz-adv-x="603" vert-adv-y="1000"  />

      
      <glyph glyph-name="uni0112" unicode="&#x0112;" d="M121 776L492 776L492 908L121 908ZM74 700L74 0L539 0L539 139L237 139L237 299L519 299L519 436L237 436L237 561L539 561L539 700Z"  horiz-adv-x="603" vert-adv-y="1000"  />

      
      <glyph glyph-name="uni0114" unicode="&#x0114;" d="M142 922C142 840 201 776 306 776C411 776 470 840 470 922L371 922C371 887 345 863 306 863C267 863 241 887 241 922ZM74 700L74 0L539 0L539 139L237 139L237 299L519 299L519 436L237 436L237 561L539 561L539 700Z"  horiz-adv-x="603" vert-adv-y="1000"  />

      
      <glyph glyph-name="uni0116" unicode="&#x0116;" d="M218 858C218 810 257 776 306 776C355 776 394 810 394 858C394 906 355 940 306 940C257 940 218 906 218 858ZM74 700L74 0L539 0L539 139L237 139L237 299L519 299L519 436L237 436L237 561L539 561L539 700Z"  horiz-adv-x="603" vert-adv-y="1000"  />

      
      <glyph glyph-name="uni0118" unicode="&#x0118;" d="M399-111C385-124 369-131 349-131C325-131 314-119 314-94C314-63 342-28 394 0L539 0L539 139L237 139L237 299L519 299L519 436L237 436L237 561L539 561L539 700L74 700L74 0L308 0C256-31 215-69 215-120C215-185 267-220 332-220C388-220 417-200 432-180Z"  horiz-adv-x="603" vert-adv-y="1000"  />

      
      <glyph glyph-name="uni011A" unicode="&#x011A;" d="M306 902L215 988L109 916L306 776L504 916L398 988ZM74 700L74 0L539 0L539 139L237 139L237 299L519 299L519 436L237 436L237 561L539 561L539 700Z"  horiz-adv-x="603" vert-adv-y="1000"  />

      
      <glyph glyph-name="uni46" unicode="&#x46;" d="M74 700L74 0L237 0L237 281L489 281L489 417L237 417L237 554L499 554L499 700Z"  horiz-adv-x="553" vert-adv-y="1000"  />

      
      <glyph glyph-name="uni47" unicode="&#x47;" d="M421 253L607 253C584 180 526 125 423 125C300 125 211 212 211 350C211 488 306 569 423 569C505 569 556 527 588 472L739 550C673 647 571 716 423 716C200 716 34 572 34 350C34 128 194-22 417-22C656-22 787 161 775 383L421 383Z"  horiz-adv-x="814" vert-adv-y="1000"  />

      
      <glyph glyph-name="uni011C" unicode="&#x011C;" d="M423 862L514 776L621 848L423 988L226 848L332 776ZM421 253L607 253C584 180 526 125 423 125C300 125 211 212 211 350C211 488 306 569 423 569C505 569 556 527 588 472L739 550C673 647 571 716 423 716C200 716 34 572 34 350C34 128 194-22 417-22C656-22 787 161 775 383L421 383Z"  horiz-adv-x="814" vert-adv-y="1000"  />

      
      <glyph glyph-name="uni011E" unicode="&#x011E;" d="M259 922C259 840 318 776 423 776C528 776 587 840 587 922L488 922C488 887 462 863 423 863C384 863 358 887 358 922ZM421 253L607 253C584 180 526 125 423 125C300 125 211 212 211 350C211 488 306 569 423 569C505 569 556 527 588 472L739 550C673 647 571 716 423 716C200 716 34 572 34 350C34 128 194-22 417-22C656-22 787 161 775 383L421 383Z"  horiz-adv-x="814" vert-adv-y="1000"  />

      
      <glyph glyph-name="uni0120" unicode="&#x0120;" d="M335 858C335 810 374 776 423 776C472 776 511 810 511 858C511 906 472 940 423 940C374 940 335 906 335 858ZM421 253L607 253C584 180 526 125 423 125C300 125 211 212 211 350C211 488 306 569 423 569C505 569 556 527 588 472L739 550C673 647 571 716 423 716C200 716 34 572 34 350C34 128 194-22 417-22C656-22 787 161 775 383L421 383Z"  horiz-adv-x="814" vert-adv-y="1000"  />

      
      <glyph glyph-name="uni0122" unicode="&#x0122;" d="M421 253L607 253C584 180 526 125 423 125C300 125 211 212 211 350C211 488 306 569 423 569C505 569 556 527 588 472L739 550C673 647 571 716 423 716C200 716 34 572 34 350C34 128 194-22 417-22C656-22 787 161 775 383L421 383ZM354-82L266-342L380-365L506-115Z"  horiz-adv-x="814" vert-adv-y="1000"  />

      
      <glyph glyph-name="uni48" unicode="&#x48;" d="M74 700L74 0L243 0L243 293L544 293L544 0L713 0L713 700L544 700L544 445L243 445L243 700Z"  horiz-adv-x="786" vert-adv-y="1000"  />

      
      <glyph glyph-name="uni0124" unicode="&#x0124;" d="M394 862L485 776L591 848L394 988L196 848L302 776ZM74 700L74 0L243 0L243 293L544 293L544 0L713 0L713 700L544 700L544 445L243 445L243 700Z"  horiz-adv-x="786" vert-adv-y="1000"  />

      
      <glyph glyph-name="uni49" unicode="&#x49;" d="M74 700L74 0L246 0L246 700Z"  horiz-adv-x="320" vert-adv-y="1000"  />

      
      <glyph glyph-name="unicc" unicode="&#xcc;" d="M-8 932L172 782L258 825L108 985ZM74 700L74 0L246 0L246 700Z"  horiz-adv-x="320" vert-adv-y="1000"  />

      
      <glyph glyph-name="unicd" unicode="&#xcd;" d="M312 932L197 985L47 825L132 782ZM74 700L74 0L246 0L246 700Z"  horiz-adv-x="320" vert-adv-y="1000"  />

      
      <glyph glyph-name="unice" unicode="&#xce;" d="M160 862L251 776L357 848L160 988L-38 848L69 776ZM74 700L74 0L246 0L246 700Z"  horiz-adv-x="320" vert-adv-y="1000"  />

      
      <glyph glyph-name="unicf" unicode="&#xcf;" d="M194 858C194 810 233 776 282 776C331 776 370 810 370 858C370 906 331 940 282 940C233 940 194 906 194 858ZM-50 858C-50 810-11 776 38 776C87 776 127 810 127 858C127 906 87 940 38 940C-11 940-50 906-50 858ZM74 700L74 0L246 0L246 700Z"  horiz-adv-x="320" vert-adv-y="1000"  />

      
      <glyph glyph-name="uni0128" unicode="&#x0128;" d="M-36 842L35 780C35 795 45 831 83 831C132 831 167 778 222 778C284 778 341 826 357 863L286 938C266 906 245 884 220 884C164 884 149 936 83 936C19 936-26 891-36 842ZM74 700L74 0L246 0L246 700Z"  horiz-adv-x="320" vert-adv-y="1000"  />

      
      <glyph glyph-name="uni012A" unicode="&#x012A;" d="M-26 776L346 776L346 908L-26 908ZM74 700L74 0L246 0L246 700Z"  horiz-adv-x="320" vert-adv-y="1000"  />

      
      <glyph glyph-name="uni012C" unicode="&#x012C;" d="M-4 922C-4 840 55 776 160 776C265 776 324 840 324 922L225 922C225 887 199 863 160 863C121 863 95 887 95 922ZM74 700L74 0L246 0L246 700Z"  horiz-adv-x="320" vert-adv-y="1000"  />

      
      <glyph glyph-name="uni012E" unicode="&#x012E;" d="M225-109C211-122 195-129 175-129C151-129 140-117 140-92C140-62 168-28 217 0L246 0L246 700L74 700L74 0L131 0C81-31 41-68 41-118C41-183 93-218 158-218C214-218 244-198 259-178Z"  horiz-adv-x="320" vert-adv-y="1000"  />

      
      <glyph glyph-name="uni0130" unicode="&#x0130;" d="M71 858C71 810 111 776 160 776C209 776 248 810 248 858C248 906 209 940 160 940C111 940 71 906 71 858ZM74 700L74 0L246 0L246 700Z"  horiz-adv-x="320" vert-adv-y="1000"  />

      
      <glyph glyph-name="uni4a" unicode="&#x4a;" d="M-72-63L-164-182C-124-208-52-239 26-239C151-239 257-188 257-54L257 700L74 700L74-16C74-76 39-96 9-96C-21-96-52-81-72-63Z"  horiz-adv-x="330" vert-adv-y="1000"  />

      
      <glyph glyph-name="uni0134" unicode="&#x0134;" d="M165 862L256 776L362 848L165 988L-32 848L74 776ZM-72-63L-164-182C-124-208-52-239 26-239C151-239 257-188 257-54L257 700L74 700L74-16C74-76 39-96 9-96C-21-96-52-81-72-63Z"  horiz-adv-x="330" vert-adv-y="1000"  />

      
      <glyph glyph-name="uni4b" unicode="&#x4b;" d="M74 700L74 0L249 0L249 306L496 0L701 0L402 372L686 700L487 700L249 424L249 700Z"  horiz-adv-x="700" vert-adv-y="1000"  />

      
      <glyph glyph-name="uni0136" unicode="&#x0136;" d="M74 700L74 0L249 0L249 306L496 0L701 0L402 372L686 700L487 700L249 424L249 700ZM330-60L242-319L356-342L483-92Z"  horiz-adv-x="700" vert-adv-y="1000"  />

      
      <glyph glyph-name="uni4c" unicode="&#x4c;" d="M74 700L74 0L524 0L524 146L243 146L243 700Z"  horiz-adv-x="528" vert-adv-y="1000"  />

      
      <glyph glyph-name="uni0139" unicode="&#x0139;" d="M460 926L345 979L195 819L280 776ZM74 700L74 0L524 0L524 146L243 146L243 700Z"  horiz-adv-x="528" vert-adv-y="1000"  />

      
      <glyph glyph-name="uni013B" unicode="&#x013B;" d="M74 700L74 0L524 0L524 146L243 146L243 700ZM267-60L179-319L293-342L419-92Z"  horiz-adv-x="528" vert-adv-y="1000"  />

      
      <glyph glyph-name="uni013D" unicode="&#x013D;" d="M412 716L324 457L439 434L564 684ZM74 700L74 0L524 0L524 146L243 146L243 700Z"  horiz-adv-x="528" vert-adv-y="1000"  />

      
      <glyph glyph-name="uni4d" unicode="&#x4d;" d="M255 356L446 65L637 356L679 0L858 0L744 735L446 309L147 735L34 0L212 0Z"  horiz-adv-x="891" vert-adv-y="1000"  />

      
      <glyph glyph-name="uni4e" unicode="&#x4e;" d="M557 700L557 307L74 735L74 0L237 0L237 393L720-35L720 700Z"  horiz-adv-x="793" vert-adv-y="1000"  />

      
      <glyph glyph-name="unid1" unicode="&#xd1;" d="M171 833L243 771C243 786 252 822 290 822C339 822 375 769 430 769C492 769 548 817 564 854L493 929C473 897 452 876 427 876C371 876 357 928 291 928C227 928 181 882 171 833ZM557 700L557 307L74 735L74 0L237 0L237 393L720-35L720 700Z"  horiz-adv-x="793" vert-adv-y="1000"  />

      
      <glyph glyph-name="uni0143" unicode="&#x0143;" d="M548 911L432 964L282 804L368 761ZM557 700L557 307L74 735L74 0L237 0L237 393L720-35L720 700Z"  horiz-adv-x="793" vert-adv-y="1000"  />

      
      <glyph glyph-name="uni0145" unicode="&#x0145;" d="M557 700L557 307L74 735L74 0L237 0L237 393L720-35L720 700ZM363-54L275-313L390-336L515-86Z"  horiz-adv-x="793" vert-adv-y="1000"  />

      
      <glyph glyph-name="uni0147" unicode="&#x0147;" d="M375 902L284 988L178 916L375 776L572 916L466 988ZM557 700L557 307L74 735L74 0L237 0L237 393L720-35L720 700Z"  horiz-adv-x="793" vert-adv-y="1000"  />

      
      <glyph glyph-name="uni4f" unicode="&#x4f;" d="M34 350C34 134 191-22 411-22C631-22 788 134 788 350C788 566 627 716 411 716C198 716 34 566 34 350ZM213 350C213 474 292 561 411 561C533 561 608 474 608 350C608 226 530 139 411 139C292 139 213 226 213 350Z"  horiz-adv-x="821" vert-adv-y="1000"  />

      
      <glyph glyph-name="unid2" unicode="&#xd2;" d="M262 932L442 782L528 825L378 985ZM34 350C34 134 191-22 411-22C631-22 788 134 788 350C788 566 627 716 411 716C198 716 34 566 34 350ZM213 350C213 474 292 561 411 561C533 561 608 474 608 350C608 226 530 139 411 139C292 139 213 226 213 350Z"  horiz-adv-x="821" vert-adv-y="1000"  />

      
      <glyph glyph-name="unid3" unicode="&#xd3;" d="M574 932L459 985L309 825L394 782ZM34 350C34 134 191-22 411-22C631-22 788 134 788 350C788 566 627 716 411 716C198 716 34 566 34 350ZM213 350C213 474 292 561 411 561C533 561 608 474 608 350C608 226 530 139 411 139C292 139 213 226 213 350Z"  horiz-adv-x="821" vert-adv-y="1000"  />

      
      <glyph glyph-name="unid4" unicode="&#xd4;" d="M414 862L505 776L611 848L414 988L216 848L322 776ZM34 350C34 134 191-22 411-22C631-22 788 134 788 350C788 566 627 716 411 716C198 716 34 566 34 350ZM213 350C213 474 292 561 411 561C533 561 608 474 608 350C608 226 530 139 411 139C292 139 213 226 213 350Z"  horiz-adv-x="821" vert-adv-y="1000"  />

      
      <glyph glyph-name="unid5" unicode="&#xd5;" d="M234 833L306 771C306 786 315 822 353 822C402 822 438 769 493 769C555 769 611 817 627 854L556 929C536 897 515 876 490 876C434 876 420 928 354 928C290 928 244 882 234 833ZM34 350C34 134 191-22 411-22C631-22 788 134 788 350C788 566 627 716 411 716C198 716 34 566 34 350ZM213 350C213 474 292 561 411 561C533 561 608 474 608 350C608 226 530 139 411 139C292 139 213 226 213 350Z"  horiz-adv-x="821" vert-adv-y="1000"  />

      
      <glyph glyph-name="unid6" unicode="&#xd6;" d="M444 858C444 810 483 776 532 776C581 776 621 810 621 858C621 906 581 940 532 940C483 940 444 906 444 858ZM201 858C201 810 240 776 289 776C338 776 377 810 377 858C377 906 338 940 289 940C240 940 201 906 201 858ZM34 350C34 134 191-22 411-22C631-22 788 134 788 350C788 566 627 716 411 716C198 716 34 566 34 350ZM213 350C213 474 292 561 411 561C533 561 608 474 608 350C608 226 530 139 411 139C292 139 213 226 213 350Z"  horiz-adv-x="821" vert-adv-y="1000"  />

      
      <glyph glyph-name="uni014C" unicode="&#x014C;" d="M225 776L596 776L596 908L225 908ZM34 350C34 134 191-22 411-22C631-22 788 134 788 350C788 566 627 716 411 716C198 716 34 566 34 350ZM213 350C213 474 292 561 411 561C533 561 608 474 608 350C608 226 530 139 411 139C292 139 213 226 213 350Z"  horiz-adv-x="821" vert-adv-y="1000"  />

      
      <glyph glyph-name="uni014E" unicode="&#x014E;" d="M246 922C246 840 306 776 411 776C516 776 575 840 575 922L476 922C476 887 450 863 411 863C372 863 346 887 346 922ZM34 350C34 134 191-22 411-22C631-22 788 134 788 350C788 566 627 716 411 716C198 716 34 566 34 350ZM213 350C213 474 292 561 411 561C533 561 608 474 608 350C608 226 530 139 411 139C292 139 213 226 213 350Z"  horiz-adv-x="821" vert-adv-y="1000"  />

      
      <glyph glyph-name="uni0150" unicode="&#x0150;" d="M318 776L462 959L339 989L225 801ZM504 776L649 959L525 989L412 801ZM34 350C34 134 191-22 411-22C631-22 788 134 788 350C788 566 627 716 411 716C198 716 34 566 34 350ZM213 350C213 474 292 561 411 561C533 561 608 474 608 350C608 226 530 139 411 139C292 139 213 226 213 350Z"  horiz-adv-x="821" vert-adv-y="1000"  />

      
      <glyph glyph-name="uni50" unicode="&#x50;" d="M74 700L74 0L243 0L243 242L317 242C496 242 589 329 589 471C589 613 496 700 317 700ZM317 561C385 561 426 529 426 471C426 413 385 382 317 382L243 382L243 561Z"  horiz-adv-x="623" vert-adv-y="1000"  />

      
      <glyph glyph-name="uni51" unicode="&#x51;" d="M34 350C34 134 194-22 414-22C498-22 572 1 632 41L688-12L870-12L720 126C764 187 788 264 788 350C788 566 630 716 414 716C201 716 34 566 34 350ZM213 350C213 474 295 561 414 561C548 561 627 455 627 331C627 294 620 260 606 232L532 300L356 300L519 146C492 134 461 127 426 127C307 127 213 214 213 350Z"  horiz-adv-x="863" vert-adv-y="1000"  />

      
      <glyph glyph-name="uni52" unicode="&#x52;" d="M74 700L74 0L243 0L243 242L295 242L445 0L644 0L462 264C554 299 602 375 602 471C602 606 508 700 329 700ZM317 556C385 556 426 523 426 465C426 407 385 374 317 374L243 374L243 556Z"  horiz-adv-x="647" vert-adv-y="1000"  />

      
      <glyph glyph-name="uni0154" unicode="&#x0154;" d="M469 926L354 979L204 819L289 776ZM74 700L74 0L243 0L243 242L295 242L445 0L644 0L462 264C554 299 602 375 602 471C602 606 508 700 329 700ZM317 556C385 556 426 523 426 465C426 407 385 374 317 374L243 374L243 556Z"  horiz-adv-x="647" vert-adv-y="1000"  />

      
      <glyph glyph-name="uni0156" unicode="&#x0156;" d="M74 700L74 0L243 0L243 242L295 242L445 0L644 0L462 264C554 299 602 375 602 471C602 606 508 700 329 700ZM317 556C385 556 426 523 426 465C426 407 385 374 317 374L243 374L243 556ZM327-60L239-319L353-342L478-92Z"  horiz-adv-x="647" vert-adv-y="1000"  />

      
      <glyph glyph-name="uni0158" unicode="&#x0158;" d="M313 902L222 988L116 916L313 776L511 916L404 988ZM74 700L74 0L243 0L243 242L295 242L445 0L644 0L462 264C554 299 602 375 602 471C602 606 508 700 329 700ZM317 556C385 556 426 523 426 465C426 407 385 374 317 374L243 374L243 556Z"  horiz-adv-x="647" vert-adv-y="1000"  />

      
      <glyph glyph-name="uni0212" unicode="&#x0212;" d="M163 776L262 776C262 811 288 836 327 836C366 836 392 811 392 776L491 776C491 858 432 922 327 922C222 922 163 858 163 776ZM74 700L74 0L243 0L243 242L295 242L445 0L644 0L462 264C554 299 602 375 602 471C602 606 508 700 329 700ZM317 556C385 556 426 523 426 465C426 407 385 374 317 374L243 374L243 556Z"  horiz-adv-x="647" vert-adv-y="1000"  />

      
      <glyph glyph-name="uni53" unicode="&#x53;" d="M151 246L33 161C79 59 191-22 328-22C460-22 587 56 587 199C587 314 506 380 408 414C311 448 254 473 254 521C254 552 279 575 327 575C381 575 424 542 455 492L584 564C547 636 466 716 325 716C189 716 81 641 81 516C81 380 199 326 268 300C369 262 408 243 408 191C408 148 373 122 323 122C252 122 194 170 151 246Z"  horiz-adv-x="625" vert-adv-y="1000"  />

      
      <glyph glyph-name="uni015A" unicode="&#x015A;" d="M501 926L386 979L236 819L321 776ZM153 251L34 167C78 52 191-22 319-22C483-22 587 53 587 196C587 317 505 379 408 413C325 443 248 465 248 513C248 549 279 573 328 573C382 573 419 541 449 489L577 562C549 633 471 716 321 716C176 716 74 637 74 519C74 383 195 329 264 302C344 270 408 252 408 193C408 148 378 125 323 125C249 125 201 167 153 251Z"  horiz-adv-x="625" vert-adv-y="1000"  />

      
      <glyph glyph-name="uni015C" unicode="&#x015C;" d="M321 862L412 776L519 848L321 988L124 848L230 776ZM153 251L34 167C78 52 191-22 319-22C483-22 587 53 587 196C587 317 505 379 408 413C325 443 248 465 248 513C248 549 279 573 328 573C382 573 419 541 449 489L577 562C549 633 471 716 321 716C176 716 74 637 74 519C74 383 195 329 264 302C344 270 408 252 408 193C408 148 378 125 323 125C249 125 201 167 153 251Z"  horiz-adv-x="625" vert-adv-y="1000"  />

      
      <glyph glyph-name="uni015E" unicode="&#x015E;" d="M153 251L34 167C71 71 155 4 256-16L203-134C238-120 276-118 286-118C317-118 346-124 346-150C346-174 326-185 292-185C272-185 239-178 214-160L168-229C215-259 256-268 312-268C375-268 443-231 443-159C443-93 392-61 352-61C339-61 326-62 315-65L346-21C491-13 587 61 587 196C587 317 505 379 408 413C325 443 248 465 248 513C248 549 276 573 325 573C379 573 419 541 449 489L577 562C546 637 471 716 321 716C172 716 74 636 74 518C74 378 195 329 264 302C344 270 408 252 408 193C408 148 378 125 323 125C249 125 201 167 153 251Z"  horiz-adv-x="625" vert-adv-y="1000"  />

      
      <glyph glyph-name="uni0160" unicode="&#x0160;" d="M321 902L230 988L124 916L321 776L519 916L412 988ZM153 251L34 167C78 52 191-22 319-22C483-22 587 53 587 196C587 317 505 379 408 413C325 443 248 465 248 513C248 549 279 573 328 573C382 573 419 541 449 489L577 562C549 633 471 716 321 716C176 716 74 637 74 519C74 383 195 329 264 302C344 270 408 252 408 193C408 148 378 125 323 125C249 125 201 167 153 251Z"  horiz-adv-x="625" vert-adv-y="1000"  />

      
      <glyph glyph-name="uni0218" unicode="&#x0218;" d="M153 251L34 167C78 52 191-22 319-22C483-22 587 53 587 196C587 317 505 379 408 413C325 443 248 465 248 513C248 549 279 573 328 573C382 573 419 541 449 489L577 562C549 633 471 716 321 716C176 716 74 637 74 519C74 383 195 329 264 302C344 270 408 252 408 193C408 148 378 125 323 125C249 125 201 167 153 251ZM262-70L174-329L288-352L414-102Z"  horiz-adv-x="625" vert-adv-y="1000"  />

      
      <glyph glyph-name="uni54" unicode="&#x54;" d="M4 548L196 548L196 0L366 0L366 548L558 548L558 700L4 700Z"  horiz-adv-x="561" vert-adv-y="1000"  />

      
      <glyph glyph-name="uni0162" unicode="&#x0162;" d="M4 548L196 548L196 0L221 0L138-184C173-170 210-168 220-168C251-168 281-174 281-200C281-224 260-235 226-235C206-235 173-228 148-210L102-278C149-308 190-318 246-318C309-318 378-280 378-208C378-142 326-111 286-111C273-111 260-111 249-114L330 0L366 0L366 548L558 548L558 700L4 700Z"  horiz-adv-x="561" vert-adv-y="1000"  />

      
      <glyph glyph-name="uni0164" unicode="&#x0164;" d="M281 902L190 988L83 916L281 776L478 916L372 988ZM4 548L196 548L196 0L366 0L366 548L558 548L558 700L4 700Z"  horiz-adv-x="561" vert-adv-y="1000"  />

      
      <glyph glyph-name="uni021A" unicode="&#x021A;" d="M4 548L196 548L196 0L366 0L366 548L558 548L558 700L4 700ZM249-60L161-319L275-342L401-92Z"  horiz-adv-x="561" vert-adv-y="1000"  />

      
      <glyph glyph-name="uni55" unicode="&#x55;" d="M69 700L69 230C69 54 192-29 350-29C508-29 632 54 632 230L632 700L463 700L463 242C463 171 425 123 350 123C275 123 238 171 238 242L238 700Z"  horiz-adv-x="701" vert-adv-y="1000"  />

      
      <glyph glyph-name="unid9" unicode="&#xd9;" d="M189 926L369 776L455 819L305 979ZM69 700L69 230C69 54 192-29 350-29C508-29 632 54 632 230L632 700L463 700L463 242C463 171 425 123 350 123C275 123 238 171 238 242L238 700Z"  horiz-adv-x="701" vert-adv-y="1000"  />

      
      <glyph glyph-name="unida" unicode="&#xda;" d="M512 926L396 979L246 819L332 776ZM69 700L69 230C69 54 192-29 350-29C508-29 632 54 632 230L632 700L463 700L463 242C463 171 425 123 350 123C275 123 238 171 238 242L238 700Z"  horiz-adv-x="701" vert-adv-y="1000"  />

      
      <glyph glyph-name="unidb" unicode="&#xdb;" d="M350 862L442 776L548 848L350 988L153 848L259 776ZM69 700L69 230C69 54 192-29 350-29C508-29 632 54 632 230L632 700L463 700L463 242C463 171 425 123 350 123C275 123 238 171 238 242L238 700Z"  horiz-adv-x="701" vert-adv-y="1000"  />

      
      <glyph glyph-name="unidc" unicode="&#xdc;" d="M403 858C403 810 442 776 491 776C540 776 579 810 579 858C579 906 540 940 491 940C442 940 403 906 403 858ZM122 858C122 810 161 776 210 776C259 776 298 810 298 858C298 906 259 940 210 940C161 940 122 906 122 858ZM69 700L69 230C69 54 192-29 350-29C508-29 632 54 632 230L632 700L463 700L463 242C463 171 425 123 350 123C275 123 238 171 238 242L238 700Z"  horiz-adv-x="701" vert-adv-y="1000"  />

      
      <glyph glyph-name="uni0168" unicode="&#x0168;" d="M154 842L226 780C226 795 235 831 273 831C322 831 358 778 413 778C475 778 531 826 547 863L476 938C456 906 435 884 410 884C354 884 340 936 274 936C210 936 164 891 154 842ZM69 700L69 230C69 54 192-29 350-29C508-29 632 54 632 230L632 700L463 700L463 242C463 171 425 123 350 123C275 123 238 171 238 242L238 700Z"  horiz-adv-x="701" vert-adv-y="1000"  />

      
      <glyph glyph-name="uni016A" unicode="&#x016A;" d="M165 776L537 776L537 908L165 908ZM69 700L69 230C69 54 192-29 350-29C508-29 632 54 632 230L632 700L463 700L463 242C463 171 425 123 350 123C275 123 238 171 238 242L238 700Z"  horiz-adv-x="701" vert-adv-y="1000"  />

      
      <glyph glyph-name="uni016C" unicode="&#x016C;" d="M186 922C186 840 245 776 350 776C455 776 515 840 515 922L416 922C416 887 389 863 350 863C311 863 285 887 285 922ZM69 700L69 230C69 54 192-29 350-29C508-29 632 54 632 230L632 700L463 700L463 242C463 171 425 123 350 123C275 123 238 171 238 242L238 700Z"  horiz-adv-x="701" vert-adv-y="1000"  />

      
      <glyph glyph-name="uni016E" unicode="&#x016E;" d="M225 892C225 823 280 776 350 776C420 776 476 823 476 892C476 961 420 1008 350 1008C280 1008 225 961 225 892ZM304 892C304 922 325 940 350 940C375 940 396 922 396 892C396 862 375 844 350 844C325 844 304 862 304 892ZM69 700L69 230C69 54 192-29 350-29C508-29 632 54 632 230L632 700L463 700L463 242C463 171 425 123 350 123C275 123 238 171 238 242L238 700Z"  horiz-adv-x="701" vert-adv-y="1000"  />

      
      <glyph glyph-name="uni0170" unicode="&#x0170;" d="M258 776L402 959L279 989L165 801ZM444 776L589 959L465 989L352 801ZM69 700L69 230C69 54 192-29 350-29C508-29 632 54 632 230L632 700L463 700L463 242C463 171 425 123 350 123C275 123 238 171 238 242L238 700Z"  horiz-adv-x="701" vert-adv-y="1000"  />

      
      <glyph glyph-name="uni0172" unicode="&#x0172;" d="M396-135C382-148 366-155 346-155C322-155 310-143 310-118C310-88 337-55 384-28C526-16 632 67 632 230L632 700L463 700L463 242C463 171 425 123 350 123C275 123 238 171 238 242L238 700L69 700L69 230C69 73 167-10 301-26C252-57 212-94 212-144C212-209 263-244 328-244C384-244 414-224 429-204Z"  horiz-adv-x="701" vert-adv-y="1000"  />

      
      <glyph glyph-name="uni56" unicode="&#x56;" d="M368 283L197 700L-1 700L368-44L736 700L538 700Z"  horiz-adv-x="735" vert-adv-y="1000"  />

      
      <glyph glyph-name="uni57" unicode="&#x57;" d="M724 301L532 735L342 301L205 700L4 700L307-41L532 380L758-41L1061 700L860 700Z"  horiz-adv-x="1065" vert-adv-y="1000"  />

      
      <glyph glyph-name="uni0174" unicode="&#x0174;" d="M532 881L624 795L730 866L532 1006L335 866L441 795ZM729 285L532 735L336 285L205 700L4 700L307-41L532 380L758-41L1061 700L860 700Z"  horiz-adv-x="1065" vert-adv-y="1000"  />

      
      <glyph glyph-name="uni1E80" unicode="&#x1E80;" d="M532 795L618 837L468 997L352 945ZM724 301L532 735L342 301L205 700L4 700L307-41L532 380L758-41L1061 700L860 700Z"  horiz-adv-x="1065" vert-adv-y="1000"  />

      
      <glyph glyph-name="uni1E82" unicode="&#x1E82;" d="M533 795L713 945L597 997L447 837ZM724 301L532 735L342 301L205 700L4 700L307-41L532 380L758-41L1061 700L860 700Z"  horiz-adv-x="1065" vert-adv-y="1000"  />

      
      <glyph glyph-name="uni1E84" unicode="&#x1E84;" d="M566 877C566 829 606 795 655 795C704 795 743 829 743 877C743 925 704 959 655 959C606 959 566 925 566 877ZM323 877C323 829 362 795 411 795C460 795 499 829 499 877C499 925 460 959 411 959C362 959 323 925 323 877ZM724 301L532 735L342 301L205 700L4 700L307-41L532 380L758-41L1061 700L860 700Z"  horiz-adv-x="1065" vert-adv-y="1000"  />

      
      <glyph glyph-name="uni1E86" unicode="&#x1E86;" d="M444 877C444 829 483 795 532 795C581 795 620 829 620 877C620 925 581 959 532 959C483 959 444 925 444 877ZM724 301L532 735L342 301L205 700L4 700L307-41L532 380L758-41L1061 700L860 700Z"  horiz-adv-x="1065" vert-adv-y="1000"  />

      
      <glyph glyph-name="uni1E88" unicode="&#x1E88;" d="M724 301L532 735L342 301L205 700L4 700L307-41L532 380L758-41L1061 700L860 700ZM444-183C444-231 483-265 532-265C581-265 620-231 620-183C620-135 581-101 532-101C483-101 444-135 444-183Z"  horiz-adv-x="1065" vert-adv-y="1000"  />

      
      <glyph glyph-name="uni58" unicode="&#x58;" d="M458 700L347 497L238 700L29 700L244 359L4 0L213 0L345 232L473 0L682 0L448 359L668 700Z"  horiz-adv-x="686" vert-adv-y="1000"  />

      
      <glyph glyph-name="uni59" unicode="&#x59;" d="M467 700L330 437L194 700L-1 700L244 284L244 0L417 0L417 285L662 700Z"  horiz-adv-x="660" vert-adv-y="1000"  />

      
      <glyph glyph-name="unidd" unicode="&#xdd;" d="M491 926L376 979L226 819L311 776ZM467 700L330 437L194 700L-1 700L244 284L244 0L417 0L417 285L662 700Z"  horiz-adv-x="660" vert-adv-y="1000"  />

      
      <glyph glyph-name="uni0176" unicode="&#x0176;" d="M330 862L421 776L528 848L330 988L133 848L239 776ZM467 700L330 437L194 700L-1 700L244 284L244 0L417 0L417 285L662 700Z"  horiz-adv-x="660" vert-adv-y="1000"  />

      
      <glyph glyph-name="uni0178" unicode="&#x0178;" d="M102 869C102 821 140 787 189 787C238 787 278 821 278 869C278 917 238 951 189 951C140 951 102 917 102 869ZM383 869C383 821 422 787 471 787C520 787 559 821 559 869C559 917 520 951 471 951C422 951 383 917 383 869ZM467 700L330 437L194 700L-1 700L244 284L244 0L417 0L417 285L662 700Z"  horiz-adv-x="660" vert-adv-y="1000"  />

      
      <glyph glyph-name="uni1EF2" unicode="&#x1EF2;" d="M330 777L416 819L266 979L150 927ZM467 700L330 437L194 700L-1 700L244 284L244 0L417 0L417 285L662 700Z"  horiz-adv-x="660" vert-adv-y="1000"  />

      
      <glyph glyph-name="uni5a" unicode="&#x5a;" d="M57 548L335 548L9 0L571 0L571 146L276 146L606 700L57 700Z"  horiz-adv-x="620" vert-adv-y="1000"  />

      
      <glyph glyph-name="uni0179" unicode="&#x0179;" d="M504 926L388 979L238 819L324 776ZM57 548L335 548L9 0L571 0L571 146L276 146L606 700L57 700Z"  horiz-adv-x="620" vert-adv-y="1000"  />

      
      <glyph glyph-name="uni017B" unicode="&#x017B;" d="M243 858C243 810 282 776 331 776C380 776 419 810 419 858C419 906 380 940 331 940C282 940 243 906 243 858ZM57 548L335 548L9 0L571 0L571 146L276 146L606 700L57 700Z"  horiz-adv-x="620" vert-adv-y="1000"  />

      
      <glyph glyph-name="uni017D" unicode="&#x017D;" d="M331 902L240 988L134 916L331 776L529 916L422 988ZM57 548L335 548L9 0L571 0L571 146L276 146L606 700L57 700Z"  horiz-adv-x="620" vert-adv-y="1000"  />

      
      <glyph glyph-name="unic6" unicode="&#xc6;" d="M1015 139L731 139L731 299L995 299L995 436L731 436L731 561L1015 561L1015 700L438 700L14 0L228 0L313 151L549 151L549 0L1015 0ZM401 306L549 568L549 306Z"  horiz-adv-x="1085" vert-adv-y="1000"  />

      
      <glyph glyph-name="unid0" unicode="&#xd0;" d="M6 302L74 302L74 0L324 0C553 0 699 135 699 350C699 565 553 700 324 700L74 700L74 402L6 402ZM356 302L356 402L249 402L249 549L318 549C426 549 524 500 524 350C524 200 426 151 318 151L249 151L249 302Z"  horiz-adv-x="733" vert-adv-y="1000"  />

      
      <glyph glyph-name="unid8" unicode="&#xd8;" d="M34 350C34 247 70 158 132 93L49-4L120-56L199 37C259-1 331-22 411-22C627-22 788 134 788 350C788 455 750 544 687 608L769 704L697 756L617 662C559 697 488 716 411 716C195 716 34 566 34 350ZM213 350C213 477 292 561 411 561C449 561 482 553 510 537L245 226C224 260 213 302 213 350ZM608 350C608 223 530 139 411 139C372 139 337 148 308 165L575 476C596 442 608 399 608 350Z"  horiz-adv-x="790" vert-adv-y="1000"  />

      
      <glyph glyph-name="unide" unicode="&#xde;" d="M80 700L80 0L228 0L228 128L311 128C490 128 583 211 583 353C583 495 490 579 311 579L228 579L228 700ZM311 446C388 446 432 420 432 353C432 286 388 261 311 261L228 261L228 446Z"  horiz-adv-x="612" vert-adv-y="1000"  />

      
      <glyph glyph-name="uni0110" unicode="&#x0110;" d="M5 298L74 298L74 0L324 0C553 0 699 135 699 350C699 565 553 700 324 700L74 700L74 398L5 398ZM349 298L349 398L249 398L249 549L318 549C426 549 524 500 524 350C524 200 426 151 318 151L249 151L249 298Z"  horiz-adv-x="733" vert-adv-y="1000"  />

      
      <glyph glyph-name="uni0126" unicode="&#x0126;" d="M5 537L74 537L74 0L243 0L243 293L544 293L544 0L713 0L713 537L782 537L782 643L713 643L713 700L544 700L544 643L243 643L243 700L74 700L74 643L5 643ZM243 445L243 537L544 537L544 445Z"  horiz-adv-x="786" vert-adv-y="1000"  />

      
      <glyph glyph-name="uni0132" unicode="&#x0132;" d="M222-63L130-182C170-208 242-239 320-239C445-239 551-188 551-54L551 700L368 700L368-16C368-76 333-96 303-96C273-96 242-81 222-63ZM74 700L74 0L246 0L246 700Z"  horiz-adv-x="624" vert-adv-y="1000"  />

      
      <glyph glyph-name="uni013F" unicode="&#x013F;" d="M74 700L74 0L524 0L524 146L243 146L243 700ZM323 431C323 380 363 338 418 338C473 338 512 380 512 431C512 482 473 523 418 523C363 523 323 482 323 431Z"  horiz-adv-x="528" vert-adv-y="1000"  />

      
      <glyph glyph-name="uni0141" unicode="&#x0141;" d="M5 309L74 355L74 0L524 0L524 146L243 146L243 469L369 554L330 628L243 569L243 700L74 700L74 455L-34 382Z"  horiz-adv-x="534" vert-adv-y="1000"  />

      
      <glyph glyph-name="uni014A" unicode="&#x014A;" d="M546-215C654-215 720-152 720-49L720 700L557 700L557 307L74 735L74 0L237 0L237 393L574 86L574-11C574-56 558-79 526-79C508-79 494-70 480-53L419-164C459-200 495-215 546-215Z"  horiz-adv-x="793" vert-adv-y="1000"  />

      
      <glyph glyph-name="uni0152" unicode="&#x0152;" d="M950 139L647 139L647 299L929 299L929 436L647 436L647 561L949 561L949 700L390 700C186 700 34 559 34 350C34 141 187 0 390 0L950 0ZM421 149C283 149 209 218 209 350C209 482 282 551 421 551L484 551L484 149Z"  horiz-adv-x="985" vert-adv-y="1000"  />

      
      <glyph glyph-name="uni0166" unicode="&#x0166;" d="M95 302L196 302L196 0L366 0L366 302L469 302L469 433L366 433L366 548L558 548L558 700L4 700L4 548L196 548L196 433L95 433Z"  horiz-adv-x="561" vert-adv-y="1000"  />

      
      <glyph glyph-name="uni1E9E" unicode="&#x1E9E;" d="M541-12C686-12 773 59 773 174C773 313 635 313 635 360C635 396 717 436 717 536C717 636 620 716 430 716C183 716 80 580 80 366L80-2L255-2L254 350C254 486 314 562 427 562C494 562 533 531 533 495C533 439 448 430 448 358C448 265 594 278 594 191C594 147 551 129 498 129C452 129 401 145 344 171L305 34C371 6 456-12 541-12Z"  horiz-adv-x="814" vert-adv-y="1000"  />

      
      <glyph glyph-name="uni0394" unicode="&#x0394;" d="M18 0L581 0L300 800ZM187 115L300 488L413 115Z"  horiz-adv-x="600" vert-adv-y="1000"  />

      
      <glyph glyph-name="uni03A9" unicode="&#x03A9;" d="M66 0L275 0L275 104C227 143 196 211 196 272C196 347 237 397 300 397C363 397 404 347 404 272C404 210 373 143 325 104L325 0L534 0L534 130L446 118C504 181 530 245 530 317C530 455 431 559 300 559C169 559 70 455 70 317C70 245 96 181 154 118L66 130Z"  horiz-adv-x="600" vert-adv-y="1000"  />

      
      <glyph glyph-name="uni0410" unicode="&#x0410;" d="M544 0L736 0L368 744L-1 0L191 0L256 135L478 135ZM368 442L445 264L290 264Z"  horiz-adv-x="735" vert-adv-y="1000"  />

      
      <glyph glyph-name="uni0411" unicode="&#x0411;" d="M80 700L80 0L395 0C530 0 633 90 633 219C633 348 530 436 395 436L252 436L252 561L580 561L580 700ZM358 299C423 299 460 274 460 219C460 164 423 139 358 139L252 139L252 299Z"  horiz-adv-x="673" vert-adv-y="1000"  />

      
      <glyph glyph-name="uni0412" unicode="&#x0412;" d="M620 197C620 292 559 348 479 376C542 404 580 454 580 522C580 641 476 700 332 700L74 700L74 0L348 0C514 0 620 58 620 197ZM313 569C371 569 405 544 405 497C405 450 371 422 313 422L243 422L243 569ZM243 131L243 304L329 304C394 304 445 282 445 221C445 154 394 131 329 131Z"  horiz-adv-x="664" vert-adv-y="1000"  />

      
      <glyph glyph-name="uni0413" unicode="&#x0413;" d="M80 700L80 0L249 0L249 548L497 548L497 700Z"  horiz-adv-x="506" vert-adv-y="1000"  />

      
      <glyph glyph-name="uni0403" unicode="&#x0403;" d="M468 926L353 979L203 819L288 776ZM80 700L80 0L249 0L249 548L497 548L497 700Z"  horiz-adv-x="506" vert-adv-y="1000"  />

      
      <glyph glyph-name="uni0414" unicode="&#x0414;" d="M669 0L669-110L838-110L838 146L724 146L439 735L154 146L40 146L40-110L209-110L209 0ZM439 430L542 146L336 146Z"  horiz-adv-x="882" vert-adv-y="1000"  />

      
      <glyph glyph-name="uni0415" unicode="&#x0415;" d="M74 700L74 0L539 0L539 139L237 139L237 299L519 299L519 436L237 436L237 561L539 561L539 700Z"  horiz-adv-x="603" vert-adv-y="1000"  />

      
      <glyph glyph-name="uni0400" unicode="&#x0400;" d="M127 926L307 776L392 819L242 979ZM74 700L74 0L539 0L539 139L237 139L237 299L519 299L519 436L237 436L237 561L539 561L539 700Z"  horiz-adv-x="603" vert-adv-y="1000"  />

      
      <glyph glyph-name="uni0401" unicode="&#x0401;" d="M340 858C340 810 379 776 428 776C477 776 517 810 517 858C517 906 477 940 428 940C379 940 340 906 340 858ZM97 858C97 810 136 776 185 776C234 776 273 810 273 858C273 906 234 940 185 940C136 940 97 906 97 858ZM74 700L74 0L539 0L539 139L237 139L237 299L519 299L519 436L237 436L237 561L539 561L539 700Z"  horiz-adv-x="603" vert-adv-y="1000"  />

      
      <glyph glyph-name="uni0416" unicode="&#x0416;" d="M212 700L14 700L304 372L-1 0L198 0L457 316L457 0L632 0L632 315L882 0L1087 0L781 372L1072 700L867 700L632 422L632 700L457 700L457 420Z"  horiz-adv-x="1085" vert-adv-y="1000"  />

      
      <glyph glyph-name="uni0417" unicode="&#x0417;" d="M354-16C543-16 639 69 639 191C639 281 582 338 490 367C568 396 619 446 619 519C619 627 527 713 349 713C173 713 78 620 78 495L234 495C234 543 277 578 349 578C416 578 452 546 452 502C452 452 403 415 305 415L305 306C421 306 472 266 472 208C472 148 423 120 347 120C271 120 218 153 215 222L48 222C48 97 142-16 354-16Z"  horiz-adv-x="668" vert-adv-y="1000"  />

      
      <glyph glyph-name="uni0418" unicode="&#x0418;" d="M237 700L74 700L74-35L557 386L557 0L720 0L720 735L237 314Z"  horiz-adv-x="793" vert-adv-y="1000"  />

      
      <glyph glyph-name="uni040D" unicode="&#x040D;" d="M249 908L429 758L514 800L364 960ZM237 700L74 700L74-35L557 386L557 0L720 0L720 735L237 314Z"  horiz-adv-x="793" vert-adv-y="1000"  />

      
      <glyph glyph-name="uni0419" unicode="&#x0419;" d="M257 918C257 836 316 771 421 771C526 771 586 836 586 918L486 918C486 883 460 858 421 858C382 858 356 883 356 918ZM237 700L74 700L74-35L557 386L557 0L720 0L720 735L237 314Z"  horiz-adv-x="793" vert-adv-y="1000"  />

      
      <glyph glyph-name="uni041A" unicode="&#x041A;" d="M74 700L74 0L249 0L249 306L496 0L701 0L402 372L686 700L487 700L249 424L249 700Z"  horiz-adv-x="700" vert-adv-y="1000"  />

      
      <glyph glyph-name="uni040C" unicode="&#x040C;" d="M560 926L444 979L294 819L380 776ZM74 700L74 0L249 0L249 306L496 0L701 0L402 372L686 700L487 700L249 424L249 700Z"  horiz-adv-x="700" vert-adv-y="1000"  />

      
      <glyph glyph-name="uni041B" unicode="&#x041B;" d="M690 700L116 700L116 286C116 199 76 143 10 143L10 0C205 0 286 98 286 296L286 548L518 548L518 0L690 0Z"  horiz-adv-x="770" vert-adv-y="1000"  />

      
      <glyph glyph-name="uni041C" unicode="&#x041C;" d="M255 356L446 65L637 356L679 0L858 0L744 735L446 309L147 735L34 0L212 0Z"  horiz-adv-x="891" vert-adv-y="1000"  />

      
      <glyph glyph-name="uni041D" unicode="&#x041D;" d="M74 700L74 0L243 0L243 293L544 293L544 0L713 0L713 700L544 700L544 445L243 445L243 700Z"  horiz-adv-x="786" vert-adv-y="1000"  />

      
      <glyph glyph-name="uni041E" unicode="&#x041E;" d="M34 350C34 134 191-22 411-22C631-22 788 134 788 350C788 566 627 716 411 716C198 716 34 566 34 350ZM213 350C213 474 292 561 411 561C533 561 608 474 608 350C608 226 530 139 411 139C292 139 213 226 213 350Z"  horiz-adv-x="821" vert-adv-y="1000"  />

      
      <glyph glyph-name="uni041F" unicode="&#x041F;" d="M519 548L519 0L691 0L691 700L80 700L80 0L252 0L252 548Z"  horiz-adv-x="771" vert-adv-y="1000"  />

      
      <glyph glyph-name="uni0420" unicode="&#x0420;" d="M74 700L74 0L243 0L243 242L317 242C496 242 589 329 589 471C589 613 496 700 317 700ZM317 561C385 561 426 529 426 471C426 413 385 382 317 382L243 382L243 561Z"  horiz-adv-x="623" vert-adv-y="1000"  />

      
      <glyph glyph-name="uni0421" unicode="&#x0421;" d="M219 350C219 479 315 555 428 555C527 555 591 512 637 462L637 646C581 689 520 716 418 716C193 716 34 568 34 350C34 132 193-16 418-16C520-16 581 11 637 54L637 238C591 188 527 145 428 145C315 145 219 221 219 350Z"  horiz-adv-x="700" vert-adv-y="1000"  />

      
      <glyph glyph-name="uni0422" unicode="&#x0422;" d="M4 548L196 548L196 0L366 0L366 548L558 548L558 700L4 700Z"  horiz-adv-x="561" vert-adv-y="1000"  />

      
      <glyph glyph-name="uni0423" unicode="&#x0423;" d="M628 700L451 700L305 371L180 700L-9 700L220 213L125 0L298 0Z"  horiz-adv-x="618" vert-adv-y="1000"  />

      
      <glyph glyph-name="uni040E" unicode="&#x040E;" d="M140 922C140 840 199 776 304 776C409 776 468 840 468 922L369 922C369 887 343 863 304 863C265 863 239 887 239 922ZM615 700L445 700L298 372L174 700L-9 700L214 213L119 0L286 0Z"  horiz-adv-x="605" vert-adv-y="1000"  />

      
      <glyph glyph-name="uni0424" unicode="&#x0424;" d="M380 700L380 620L366 620C182 620 40 519 40 350C40 181 182 80 366 80L380 80L380 0L553 0L553 80L567 80C751 80 893 181 893 350C893 519 751 620 567 620L553 620L553 700ZM720 350C720 263 656 231 553 228L553 472C656 469 720 437 720 350ZM212 350C212 437 277 469 380 472L380 228C277 231 212 263 212 350Z"  horiz-adv-x="933" vert-adv-y="1000"  />

      
      <glyph glyph-name="uni0425" unicode="&#x0425;" d="M458 700L347 497L238 700L29 700L244 359L4 0L213 0L345 232L473 0L682 0L448 359L668 700Z"  horiz-adv-x="686" vert-adv-y="1000"  />

      
      <glyph glyph-name="uni0426" unicode="&#x0426;" d="M246 152L246 700L74 700L74 0L664 0L664-135L826-135L826 152L716 152L716 700L544 700L544 152Z"  horiz-adv-x="860" vert-adv-y="1000"  />

      
      <glyph glyph-name="uni0427" unicode="&#x0427;" d="M244 700L74 700L74 468C74 333 157 221 309 221L462 221L462 0L638 0L638 700L462 700L462 371L359 371C292 371 244 412 244 490Z"  horiz-adv-x="718" vert-adv-y="1000"  />

      
      <glyph glyph-name="uni0428" unicode="&#x0428;" d="M832 152L622 152L622 700L459 700L459 152L249 152L249 700L80 700L80 0L1002 0L1002 700L832 700Z"  horiz-adv-x="1081" vert-adv-y="1000"  />

      
      <glyph glyph-name="uni0429" unicode="&#x0429;" d="M832 152L622 152L622 700L459 700L459 152L249 152L249 700L80 700L80 0L949 0L949-135L1112-135L1112 152L1002 152L1002 700L832 700Z"  horiz-adv-x="1151" vert-adv-y="1000"  />

      
      <glyph glyph-name="uni042A" unicode="&#x042A;" d="M190 549L190 0L430 0C609 0 702 87 702 229C702 371 609 458 430 458L359 458L359 700L10 700L10 549ZM430 318C498 318 539 287 539 229C539 171 498 139 430 139L359 139L359 318Z"  horiz-adv-x="736" vert-adv-y="1000"  />

      
      <glyph glyph-name="uni042B" unicode="&#x042B;" d="M662 700L662 0L835 0L835 700ZM74 700L74 0L317 0C496 0 589 87 589 229C589 371 496 458 317 458L243 458L243 700ZM317 318C385 318 426 287 426 229C426 171 385 139 317 139L243 139L243 318Z"  horiz-adv-x="908" vert-adv-y="1000"  />

      
      <glyph glyph-name="uni042C" unicode="&#x042C;" d="M74 700L74 0L317 0C496 0 589 87 589 229C589 371 496 458 317 458L243 458L243 700ZM317 318C385 318 426 287 426 229C426 171 385 139 317 139L243 139L243 318Z"  horiz-adv-x="623" vert-adv-y="1000"  />

      
      <glyph glyph-name="uni042D" unicode="&#x042D;" d="M137 282L489 282C457 193 364 139 272 139C173 139 104 182 64 219L64 54C120 11 180-16 282-16C507-16 667 132 667 350C667 568 507 716 282 716C180 716 120 689 64 646L64 481C104 518 173 561 272 561C364 561 457 507 489 418L137 418Z"  horiz-adv-x="700" vert-adv-y="1000"  />

      
      <glyph glyph-name="uni042E" unicode="&#x042E;" d="M74 700L74 0L243 0L243 293L359 293C384 107 532-22 732-22C952-22 1109 134 1109 350C1109 566 948 716 732 716C552 716 407 609 366 445L243 445L243 700ZM534 350C534 474 613 561 732 561C854 561 929 474 929 350C929 226 851 139 732 139C613 139 534 226 534 350Z"  horiz-adv-x="1142" vert-adv-y="1000"  />

      
      <glyph glyph-name="uni042F" unicode="&#x042F;" d="M574 700L318 700C139 700 46 606 46 471C46 375 93 299 185 264L4 0L202 0L352 242L404 242L404 0L574 0ZM331 374C263 374 221 407 221 465C221 523 263 556 331 556L404 556L404 374Z"  horiz-adv-x="647" vert-adv-y="1000"  />

      
      <glyph glyph-name="unib5" unicode="&#xb5;" d="M218 460L59 460L59-320L205-320L205 16C229 0 249-4 271-4C311-4 344 21 364 53L364 0L516 0L516 460L364 460L364 205C364 151 332 121 284 121C235 121 218 151 218 205Z"  horiz-adv-x="575" vert-adv-y="1000"  />

      
      <glyph glyph-name="uni61" unicode="&#x61;" d="M109 319C127 331 192 358 253 358C310 358 340 336 340 290L340 250C308 266 261 279 204 279C88 279 24 224 24 136C24 41 99-10 188-10C252-10 312 15 340 63L340 0L485 0L485 324C485 419 393 473 272 473C185 473 111 445 58 420ZM177 144C177 177 198 196 251 196C283 196 313 190 340 178C336 118 291 88 242 88C205 88 177 108 177 144Z"  horiz-adv-x="539" vert-adv-y="1000"  />

      
      <glyph glyph-name="unie0" unicode="&#xe0;" d="M104 683L284 533L369 576L219 736ZM117 318C139 331 198 358 264 358C314 358 345 333 345 294L345 252C314 266 269 279 223 279C106 279 24 222 24 128C24 41 90-10 191-10C260-10 318 17 345 65L345 0L491 0L491 324C491 419 400 473 276 473C193 473 119 445 66 420ZM177 138C177 174 206 197 258 197C293 197 320 191 345 180C342 110 295 89 242 89C202 89 177 105 177 138Z"  horiz-adv-x="544" vert-adv-y="1000"  />

      
      <glyph glyph-name="unie1" unicode="&#xe1;" d="M449 683L333 736L183 576L269 533ZM117 318C139 331 198 358 264 358C314 358 345 333 345 294L345 252C314 266 269 279 223 279C106 279 24 222 24 128C24 41 90-10 191-10C260-10 318 17 345 65L345 0L491 0L491 324C491 419 400 473 276 473C193 473 119 445 66 420ZM177 138C177 174 206 197 258 197C293 197 320 191 345 180C342 110 295 89 242 89C202 89 177 105 177 138Z"  horiz-adv-x="544" vert-adv-y="1000"  />

      
      <glyph glyph-name="unie2" unicode="&#xe2;" d="M276 619L367 533L474 604L276 744L79 604L185 533ZM117 318C139 331 198 358 264 358C314 358 345 333 345 294L345 252C314 266 269 279 223 279C106 279 24 222 24 128C24 41 90-10 191-10C260-10 318 17 345 65L345 0L491 0L491 324C491 419 400 473 276 473C193 473 119 445 66 420ZM177 138C177 174 206 197 258 197C293 197 320 191 345 180C342 110 295 89 242 89C202 89 177 105 177 138Z"  horiz-adv-x="544" vert-adv-y="1000"  />

      
      <glyph glyph-name="unie3" unicode="&#xe3;" d="M80 599L152 537C152 552 160 588 198 588C247 588 283 535 338 535C400 535 456 583 472 620L401 694C381 662 361 641 336 641C280 641 266 693 200 693C136 693 90 648 80 599ZM117 318C139 331 198 358 264 358C314 358 345 333 345 294L345 252C314 266 269 279 223 279C106 279 24 222 24 128C24 41 90-10 191-10C260-10 318 17 345 65L345 0L491 0L491 324C491 419 400 473 276 473C193 473 119 445 66 420ZM177 138C177 174 206 197 258 197C293 197 320 191 345 180C342 110 295 89 242 89C202 89 177 105 177 138Z"  horiz-adv-x="544" vert-adv-y="1000"  />

      
      <glyph glyph-name="unie4" unicode="&#xe4;" d="M310 615C310 567 349 533 398 533C447 533 486 567 486 615C486 663 447 697 398 697C349 697 310 663 310 615ZM66 615C66 567 105 533 154 533C203 533 242 567 242 615C242 663 203 697 154 697C105 697 66 663 66 615ZM117 318C139 331 198 358 264 358C314 358 345 333 345 294L345 252C314 266 269 279 223 279C106 279 24 222 24 128C24 41 90-10 191-10C260-10 318 17 345 65L345 0L491 0L491 324C491 419 400 473 276 473C193 473 119 445 66 420ZM177 138C177 174 206 197 258 197C293 197 320 191 345 180C342 110 295 89 242 89C202 89 177 105 177 138Z"  horiz-adv-x="544" vert-adv-y="1000"  />

      
      <glyph glyph-name="unie5" unicode="&#xe5;" d="M151 649C151 580 206 533 276 533C346 533 401 580 401 649C401 718 346 764 276 764C206 764 151 718 151 649ZM230 649C230 679 251 697 276 697C301 697 322 679 322 649C322 619 301 601 276 601C251 601 230 619 230 649ZM117 318C139 331 198 358 264 358C314 358 345 333 345 294L345 252C314 266 269 279 223 279C106 279 24 222 24 128C24 41 90-10 191-10C260-10 318 17 345 65L345 0L491 0L491 324C491 419 400 473 276 473C193 473 119 445 66 420ZM177 138C177 174 206 197 258 197C293 197 320 191 345 180C342 110 295 89 242 89C202 89 177 105 177 138Z"  horiz-adv-x="544" vert-adv-y="1000"  />

      
      <glyph glyph-name="uni0101" unicode="&#x0101;" d="M90 541L462 541L462 672L90 672ZM117 318C139 331 198 358 264 358C314 358 345 333 345 294L345 252C314 266 269 279 223 279C106 279 24 222 24 128C24 41 90-10 191-10C260-10 318 17 345 65L345 0L491 0L491 324C491 419 400 473 276 473C193 473 119 445 66 420ZM177 138C177 174 206 197 258 197C293 197 320 191 345 180C342 110 295 89 242 89C202 89 177 105 177 138Z"  horiz-adv-x="544" vert-adv-y="1000"  />

      
      <glyph glyph-name="uni0103" unicode="&#x0103;" d="M112 679C112 597 171 533 276 533C381 533 440 597 440 679L341 679C341 644 315 620 276 620C237 620 211 644 211 679ZM117 318C139 331 198 358 264 358C314 358 345 333 345 294L345 252C314 266 269 279 223 279C106 279 24 222 24 128C24 41 90-10 191-10C260-10 318 17 345 65L345 0L491 0L491 324C491 419 400 473 276 473C193 473 119 445 66 420ZM177 138C177 174 206 197 258 197C293 197 320 191 345 180C342 110 295 89 242 89C202 89 177 105 177 138Z"  horiz-adv-x="544" vert-adv-y="1000"  />

      
      <glyph glyph-name="uni0105" unicode="&#x0105;" d="M117 318C139 331 198 358 264 358C314 358 345 333 345 294L345 252C314 266 269 279 223 279C102 279 24 222 24 131C24 40 93-10 191-10C260-10 318 17 345 65L345 0L373 0C321-31 280-69 280-120C280-185 332-220 397-220C453-220 482-200 497-180L464-111C450-124 434-131 414-131C390-131 379-119 379-94C379-63 407-28 459 0L491 0L491 324C491 419 400 473 276 473C193 473 119 445 66 420ZM177 138C177 174 206 197 258 197C293 197 320 191 345 180C342 110 295 89 242 89C206 89 177 105 177 138Z"  horiz-adv-x="544" vert-adv-y="1000"  />

      
      <glyph glyph-name="uni62" unicode="&#x62;" d="M585 230C585 385 478 470 366 470C300 470 245 440 209 387L209 780L58 780L58 0L209 0L209 73C245 20 300-10 366-10C478-10 585 75 585 230ZM426 230C426 158 376 112 316 112C265 112 209 155 209 230C209 305 265 348 316 348C376 348 426 302 426 230Z"  horiz-adv-x="616" vert-adv-y="1000"  />

      
      <glyph glyph-name="uni63" unicode="&#x63;" d="M186 230C186 298 241 349 309 349C358 349 417 326 444 282L444 430C412 453 365 470 296 470C142 470 30 375 30 230C30 85 142-10 296-10C365-10 412 6 444 32L444 179C417 135 364 111 309 111C241 111 186 156 186 230Z"  horiz-adv-x="493" vert-adv-y="1000"  />

      
      <glyph glyph-name="unie7" unicode="&#xe7;" d="M186 230C186 298 241 349 309 349C358 349 417 326 444 282L444 430C412 453 365 470 296 470C142 470 30 375 30 230C30 114 102 30 210 1L150-134C185-120 222-118 232-118C263-118 292-124 292-150C292-174 272-185 238-185C218-185 185-178 160-160L114-229C161-259 202-268 258-268C321-268 389-231 389-159C389-93 338-61 298-61C285-61 272-62 261-65L300-10C365-10 412 6 444 32L444 179C417 135 364 111 309 111C241 111 186 156 186 230Z"  horiz-adv-x="493" vert-adv-y="1000"  />

      
      <glyph glyph-name="uni0107" unicode="&#x0107;" d="M426 681L310 733L160 573L246 531ZM186 230C186 298 241 349 309 349C358 349 417 326 444 282L444 430C412 453 365 470 296 470C142 470 30 375 30 230C30 85 142-10 296-10C365-10 412 6 444 32L444 179C417 135 364 111 309 111C241 111 186 156 186 230Z"  horiz-adv-x="493" vert-adv-y="1000"  />

      
      <glyph glyph-name="uni0109" unicode="&#x0109;" d="M265 616L356 531L462 602L265 742L67 602L174 531ZM186 230C186 298 241 349 309 349C358 349 417 326 444 282L444 430C412 453 365 470 296 470C142 470 30 375 30 230C30 85 142-10 296-10C365-10 412 6 444 32L444 179C417 135 364 111 309 111C241 111 186 156 186 230Z"  horiz-adv-x="493" vert-adv-y="1000"  />

      
      <glyph glyph-name="uni010B" unicode="&#x010B;" d="M183 619C183 571 222 537 271 537C320 537 359 571 359 619C359 667 320 701 271 701C222 701 183 667 183 619ZM186 230C186 298 241 349 309 349C358 349 417 326 444 282L444 430C412 453 365 470 296 470C142 470 30 375 30 230C30 85 142-10 296-10C365-10 412 6 444 32L444 179C417 135 364 111 309 111C241 111 186 156 186 230Z"  horiz-adv-x="493" vert-adv-y="1000"  />

      
      <glyph glyph-name="uni010D" unicode="&#x010D;" d="M265 656L174 742L67 671L265 531L462 671L356 742ZM186 230C186 298 241 349 309 349C358 349 417 326 444 282L444 430C412 453 365 470 296 470C142 470 30 375 30 230C30 85 142-10 296-10C365-10 412 6 444 32L444 179C417 135 364 111 309 111C241 111 186 156 186 230Z"  horiz-adv-x="493" vert-adv-y="1000"  />

      
      <glyph glyph-name="uni64" unicode="&#x64;" d="M32 230C32 75 138-10 250-10C316-10 372 20 408 74L408 0L559 0L559 780L408 780L408 386C372 440 316 470 250 470C138 470 32 385 32 230ZM191 230C191 302 241 348 301 348C352 348 408 305 408 230C408 155 352 112 301 112C241 112 191 158 191 230Z"  horiz-adv-x="616" vert-adv-y="1000"  />

      
      <glyph glyph-name="uni010F" unicode="&#x010F;" d="M32 230C32 75 138-10 250-10C316-10 372 20 408 74L408 0L559 0L559 780L408 780L408 386C372 440 316 470 250 470C138 470 32 385 32 230ZM677 780L589 521L704 498L829 748ZM191 230C191 302 241 348 301 348C352 348 408 305 408 230C408 155 352 112 301 112C241 112 191 158 191 230Z"  horiz-adv-x="616" vert-adv-y="1000"  />

      
      <glyph glyph-name="uni65" unicode="&#x65;" d="M294-10C411-10 492 35 541 126L405 159C382 119 344 99 291 99C232 99 195 135 187 198L538 198C539 208 539 222 539 237C539 385 450 470 291 470C130 470 32 379 32 230C32 83 132-10 294-10ZM288 369C339 369 372 336 377 282L189 282C201 340 234 369 288 369Z"  horiz-adv-x="573" vert-adv-y="1000"  />

      
      <glyph glyph-name="unie8" unicode="&#xe8;" d="M126 684L306 534L392 577L242 737ZM541 126L405 159C383 121 345 99 291 99C239 99 197 127 187 198L538 198C540 214 539 229 539 237C539 382 452 470 291 470C141 470 55 392 36 279C33 263 32 247 32 230C32 91 125-10 294-10C426-10 495 44 541 126ZM288 369C342 369 370 337 377 282L189 282C198 338 235 369 288 369Z"  horiz-adv-x="573" vert-adv-y="1000"  />

      
      <glyph glyph-name="unie9" unicode="&#xe9;" d="M464 684L348 737L198 577L284 534ZM541 126L405 159C383 121 345 99 291 99C239 99 197 127 187 198L538 198C540 214 539 229 539 237C539 382 452 470 291 470C141 470 55 392 36 279C33 263 32 247 32 230C32 91 125-10 294-10C426-10 495 44 541 126ZM288 369C342 369 370 337 377 282L189 282C198 338 235 369 288 369Z"  horiz-adv-x="573" vert-adv-y="1000"  />

      
      <glyph glyph-name="uniea" unicode="&#xea;" d="M291 616L382 531L489 602L291 742L94 602L200 531ZM541 126L405 159C383 121 345 99 291 99C239 99 197 127 187 198L538 198C540 214 539 229 539 237C539 382 452 470 291 470C141 470 55 392 36 279C33 263 32 247 32 230C32 91 125-10 294-10C426-10 495 44 541 126ZM288 369C342 369 370 337 377 282L189 282C198 338 235 369 288 369Z"  horiz-adv-x="573" vert-adv-y="1000"  />

      
      <glyph glyph-name="unieb" unicode="&#xeb;" d="M325 612C325 564 364 531 413 531C462 531 501 564 501 612C501 660 462 694 413 694C364 694 325 660 325 612ZM81 612C81 564 120 531 169 531C218 531 257 564 257 612C257 660 218 694 169 694C120 694 81 660 81 612ZM541 126L405 159C383 121 345 99 291 99C239 99 197 127 187 198L538 198C540 214 539 229 539 237C539 382 452 470 291 470C141 470 55 392 36 279C33 263 32 247 32 230C32 91 125-10 294-10C426-10 495 44 541 126ZM288 369C342 369 370 337 377 282L189 282C198 338 235 369 288 369Z"  horiz-adv-x="573" vert-adv-y="1000"  />

      
      <glyph glyph-name="uni0113" unicode="&#x0113;" d="M105 531L477 531L477 662L105 662ZM541 126L405 159C383 121 345 99 291 99C239 99 197 127 187 198L538 198C540 214 539 229 539 237C539 382 452 470 291 470C141 470 55 392 36 279C33 263 32 247 32 230C32 91 125-10 294-10C426-10 495 44 541 126ZM288 369C342 369 370 337 377 282L189 282C198 338 235 369 288 369Z"  horiz-adv-x="573" vert-adv-y="1000"  />

      
      <glyph glyph-name="uni0115" unicode="&#x0115;" d="M127 677C127 595 186 531 291 531C396 531 455 595 455 677L356 677C356 642 330 618 291 618C252 618 226 642 226 677ZM541 126L405 159C383 121 345 99 291 99C239 99 197 127 187 198L538 198C540 214 539 229 539 237C539 382 452 470 291 470C141 470 55 392 36 279C33 263 32 247 32 230C32 91 125-10 294-10C426-10 495 44 541 126ZM288 369C342 369 370 337 377 282L189 282C198 338 235 369 288 369Z"  horiz-adv-x="573" vert-adv-y="1000"  />

      
      <glyph glyph-name="uni0117" unicode="&#x0117;" d="M203 612C203 564 242 531 291 531C340 531 379 564 379 612C379 660 340 694 291 694C242 694 203 660 203 612ZM541 126L405 159C383 121 345 99 291 99C239 99 197 127 187 198L538 198C540 214 539 229 539 237C539 382 452 470 291 470C141 470 55 392 36 279C33 263 32 247 32 230C32 91 125-10 294-10C426-10 495 44 541 126ZM288 369C342 369 370 337 377 282L189 282C198 338 235 369 288 369Z"  horiz-adv-x="573" vert-adv-y="1000"  />

      
      <glyph glyph-name="uni0119" unicode="&#x0119;" d="M327-103C313-116 297-123 277-123C253-123 242-111 242-86C242-61 260-34 293-10L294-10C426-10 495 44 541 126L405 159C383 121 345 99 291 99C239 99 197 127 187 198L538 198C540 214 539 229 539 237C539 382 452 470 291 470C141 470 55 392 36 279C33 263 32 247 32 230C32 113 98 23 219-3C176-32 143-67 143-112C143-177 195-212 260-212C316-212 345-192 360-172ZM288 369C342 369 370 337 377 282L189 282C198 338 235 369 288 369Z"  horiz-adv-x="573" vert-adv-y="1000"  />

      
      <glyph glyph-name="uni011B" unicode="&#x011B;" d="M291 656L200 742L94 671L291 531L489 671L382 742ZM541 126L405 159C383 121 345 99 291 99C239 99 197 127 187 198L538 198C540 214 539 229 539 237C539 382 452 470 291 470C141 470 55 392 36 279C33 263 32 247 32 230C32 91 125-10 294-10C426-10 495 44 541 126ZM288 369C342 369 370 337 377 282L189 282C198 338 235 369 288 369Z"  horiz-adv-x="573" vert-adv-y="1000"  />

      
      <glyph glyph-name="uni66" unicode="&#x66;" d="M18 460L18 335L76 335L76 0L221 0L221 335L332 335L332 460L221 460L221 592C221 639 239 660 269 660C287 660 303 653 316 635L377 746C356 766 317 796 249 796C134 796 76 733 76 630L76 460Z"  horiz-adv-x="344" vert-adv-y="1000"  />

      
      <glyph glyph-name="uni67" unicode="&#x67;" d="M42-33C53-155 128-239 300-239C440-239 553-168 553 10L553 460L408 460L408 390C372 442 316 470 250 470C138 470 32 391 32 236C32 81 138 2 250 2C316 2 372 30 408 82L408 10C408-75 357-118 293-118C234-118 194-90 189-33ZM191 236C191 308 241 348 301 348C352 348 408 311 408 236C408 161 352 124 301 124C241 124 191 164 191 236Z"  horiz-adv-x="610" vert-adv-y="1000"  />

      
      <glyph glyph-name="uni011D" unicode="&#x011D;" d="M319 616L410 531L517 602L319 742L122 602L228 531ZM42-33C53-155 128-239 300-239C440-239 553-168 553 10L553 460L408 460L408 390C372 442 316 470 250 470C138 470 32 391 32 236C32 81 138 2 250 2C316 2 372 30 408 82L408 10C408-75 357-118 293-118C234-118 194-90 189-33ZM191 236C191 308 241 348 301 348C352 348 408 311 408 236C408 161 352 124 301 124C241 124 191 164 191 236Z"  horiz-adv-x="610" vert-adv-y="1000"  />

      
      <glyph glyph-name="uni011F" unicode="&#x011F;" d="M155 677C155 595 214 531 319 531C424 531 484 595 484 677L384 677C384 642 358 618 319 618C280 618 254 642 254 677ZM42-33C53-155 128-239 300-239C440-239 553-168 553 10L553 460L408 460L408 390C372 442 316 470 250 470C138 470 32 391 32 236C32 81 138 2 250 2C316 2 372 30 408 82L408 10C408-75 357-118 293-118C234-118 194-90 189-33ZM191 236C191 308 241 348 301 348C352 348 408 311 408 236C408 161 352 124 301 124C241 124 191 164 191 236Z"  horiz-adv-x="610" vert-adv-y="1000"  />

      
      <glyph glyph-name="uni0121" unicode="&#x0121;" d="M220 628C220 580 259 546 308 546C357 546 396 580 396 628C396 676 357 709 308 709C259 709 220 676 220 628ZM42-33C53-155 128-239 300-239C440-239 553-168 553 10L553 460L408 460L408 390C372 442 316 470 250 470C138 470 32 391 32 236C32 81 138 2 250 2C316 2 372 30 408 82L408 10C408-75 357-118 293-118C234-118 194-90 189-33ZM191 236C191 308 241 348 301 348C352 348 408 311 408 236C408 161 352 124 301 124C241 124 191 164 191 236Z"  horiz-adv-x="610" vert-adv-y="1000"  />

      
      <glyph glyph-name="uni0123" unicode="&#x0123;" d="M310 542L437 784L327 825L165 597ZM42-33C53-155 128-239 300-239C440-239 553-168 553 10L553 460L408 460L408 390C372 442 316 470 250 470C138 470 32 391 32 236C32 81 138 2 250 2C316 2 372 30 408 82L408 10C408-75 357-118 293-118C234-118 194-90 189-33ZM191 236C191 308 241 348 301 348C352 348 408 311 408 236C408 161 352 124 301 124C241 124 191 164 191 236Z"  horiz-adv-x="570" vert-adv-y="1000"  />

      
      <glyph glyph-name="uni68" unicode="&#x68;" d="M358 280L358 0L509 0L509 302C509 415 465 477 351 477C283 477 237 446 211 397L211 780L59 780L59 0L211 0L211 280C211 334 243 364 291 364C340 364 358 334 358 280Z"  horiz-adv-x="568" vert-adv-y="1000"  />

      
      <glyph glyph-name="uni0125" unicode="&#x0125;" d="M138 926L229 840L335 911L138 1051L-60 911L47 840ZM358 280L358 0L509 0L509 302C509 415 465 477 351 477C285 477 238 447 211 401L211 780L59 780L59 0L211 0L211 280C211 334 243 364 291 364C340 364 358 334 358 280Z"  horiz-adv-x="568" vert-adv-y="1000"  />

      
      <glyph glyph-name="uni69" unicode="&#x69;" d="M50 632C50 584 89 551 138 551C187 551 226 584 226 632C226 680 187 714 138 714C89 714 50 680 50 632ZM64 460L64 0L211 0L211 460Z"  horiz-adv-x="276" vert-adv-y="1000"  />

      
      <glyph glyph-name="uniec" unicode="&#xec;" d="M-42 688L138 538L223 581L73 741ZM64 460L64 0L211 0L211 460Z"  horiz-adv-x="276" vert-adv-y="1000"  />

      
      <glyph glyph-name="unied" unicode="&#xed;" d="M310 688L194 741L44 581L130 538ZM64 460L64 0L211 0L211 460Z"  horiz-adv-x="276" vert-adv-y="1000"  />

      
      <glyph glyph-name="uniee" unicode="&#xee;" d="M138 620L229 534L335 606L138 746L-60 606L46 534ZM64 460L64 0L211 0L211 460Z"  horiz-adv-x="276" vert-adv-y="1000"  />

      
      <glyph glyph-name="unief" unicode="&#xef;" d="M172 624C172 576 211 542 260 542C309 542 348 576 348 624C348 672 309 706 260 706C211 706 172 672 172 624ZM-72 624C-72 576-33 542 16 542C65 542 104 576 104 624C104 672 65 706 16 706C-33 706-72 672-72 624ZM64 460L64 0L211 0L211 460Z"  horiz-adv-x="276" vert-adv-y="1000"  />

      
      <glyph glyph-name="uni0129" unicode="&#x0129;" d="M-58 596L13 534C13 549 22 585 60 585C109 585 145 532 200 532C262 532 318 581 334 618L263 692C243 660 222 639 197 639C141 639 127 691 61 691C-3 691-48 645-58 596ZM64 460L64 0L211 0L211 460Z"  horiz-adv-x="276" vert-adv-y="1000"  />

      
      <glyph glyph-name="uni012B" unicode="&#x012B;" d="M-48 531L324 531L324 662L-48 662ZM64 460L64 0L211 0L211 460Z"  horiz-adv-x="276" vert-adv-y="1000"  />

      
      <glyph glyph-name="uni012D" unicode="&#x012D;" d="M-27 677C-27 595 33 531 138 531C243 531 302 595 302 677L203 677C203 642 177 618 138 618C99 618 72 642 72 677ZM64 460L64 0L211 0L211 460Z"  horiz-adv-x="276" vert-adv-y="1000"  />

      
      <glyph glyph-name="uni012F" unicode="&#x012F;" d="M50 632C50 584 89 551 138 551C187 551 226 584 226 632C226 680 187 714 138 714C89 714 50 680 50 632ZM191-111C177-124 161-131 141-131C117-131 106-119 106-94C106-63 134-28 186 0L211 0L211 460L64 460L64 0L100 0C48-31 7-69 7-120C7-185 59-220 124-220C180-220 209-200 224-180Z"  horiz-adv-x="276" vert-adv-y="1000"  />

      
      <glyph glyph-name="uni6a" unicode="&#x6a;" d="M45 632C45 584 84 551 133 551C182 551 221 584 221 632C221 680 182 714 133 714C84 714 45 680 45 632ZM-33-77L-94-188C-71-211-34-239 33-239C148-239 207-172 207-72L207 460L61 460L61-34C61-80 45-102 13-102C-7-102-21-92-33-77Z"  horiz-adv-x="271" vert-adv-y="1000"  />

      
      <glyph glyph-name="uni0135" unicode="&#x0135;" d="M134 616L225 531L331 602L134 742L-64 602L42 531ZM-33-77L-94-188C-73-208-35-239 33-239C148-239 207-175 207-72L207 460L61 460L61-34C61-81 43-102 13-102C-5-102-20-95-33-77Z"  horiz-adv-x="271" vert-adv-y="1000"  />

      
      <glyph glyph-name="uni6b" unicode="&#x6b;" d="M371 460L203 298L203 780L58 780L58 0L203 0L203 234L393 0L571 0L354 270L551 460Z"  horiz-adv-x="577" vert-adv-y="1000"  />

      
      <glyph glyph-name="uni0137" unicode="&#x0137;" d="M371 460L203 298L203 780L58 780L58 0L203 0L203 234L393 0L571 0L354 270L551 460ZM257-60L169-319L283-342L410-92Z"  horiz-adv-x="577" vert-adv-y="1000"  />

      
      <glyph glyph-name="uni6c" unicode="&#x6c;" d="M59 780L59 0L211 0L211 780Z"  horiz-adv-x="270" vert-adv-y="1000"  />

      
      <glyph glyph-name="uni013A" unicode="&#x013A;" d="M297 990L181 1042L31 882L117 840ZM59 780L59 0L211 0L211 780Z"  horiz-adv-x="270" vert-adv-y="1000"  />

      
      <glyph glyph-name="uni013C" unicode="&#x013C;" d="M59 780L59 0L211 0L211 780ZM103-60L15-319L130-342L255-92Z"  horiz-adv-x="270" vert-adv-y="1000"  />

      
      <glyph glyph-name="uni013E" unicode="&#x013E;" d="M59 780L59 0L211 0L211 780ZM349 780L261 521L376 498L501 748Z"  horiz-adv-x="270" vert-adv-y="1000"  />

      
      <glyph glyph-name="uni6d" unicode="&#x6d;" d="M761 296C761 407 723 471 616 471C553 471 503 443 470 395C452 445 410 471 338 471C275 471 231 442 205 392L205 460L59 460L59 0L205 0L205 280C205 336 233 364 273 364C314 364 331 335 331 280L331 0L483 0L483 280C483 336 511 364 551 364C592 364 609 335 609 280L609 0L761 0Z"  horiz-adv-x="820" vert-adv-y="1000"  />

      
      <glyph glyph-name="uni6e" unicode="&#x6e;" d="M358 280L358 0L516 0L516 296C516 406 465 471 351 471C283 471 238 441 211 391L211 460L59 460L59 0L211 0L211 280C211 334 243 364 291 364C340 364 358 334 358 280Z"  horiz-adv-x="575" vert-adv-y="1000"  />

      
      <glyph glyph-name="unif1" unicode="&#xf1;" d="M92 596L163 534C163 549 172 585 210 585C259 585 295 532 350 532C412 532 468 581 484 618L413 692C393 660 372 639 347 639C291 639 277 691 211 691C147 691 102 645 92 596ZM358 280L358 0L516 0L516 296C516 409 465 471 351 471C285 471 238 441 211 395L211 460L59 460L59 0L211 0L211 280C211 334 243 364 291 364C340 364 358 334 358 280Z"  horiz-adv-x="575" vert-adv-y="1000"  />

      
      <glyph glyph-name="uni0144" unicode="&#x0144;" d="M452 681L337 733L187 573L272 531ZM358 280L358 0L516 0L516 296C516 409 465 471 351 471C283 471 237 440 211 391L211 460L59 460L59 0L211 0L211 280C211 334 243 364 291 364C340 364 358 334 358 280Z"  horiz-adv-x="575" vert-adv-y="1000"  />

      
      <glyph glyph-name="uni0146" unicode="&#x0146;" d="M358 280L358 0L516 0L516 296C516 409 465 471 351 471C285 471 238 441 211 395L211 460L59 460L59 0L211 0L211 280C211 334 243 364 291 364C340 364 358 334 358 280ZM255-60L167-319L282-342L407-92Z"  horiz-adv-x="575" vert-adv-y="1000"  />

      
      <glyph glyph-name="uni0148" unicode="&#x0148;" d="M287 656L196 742L90 671L287 531L484 671L378 742ZM358 280L358 0L516 0L516 296C516 409 465 471 351 471C285 471 238 441 211 395L211 460L59 460L59 0L211 0L211 280C211 334 243 364 291 364C340 364 358 334 358 280Z"  horiz-adv-x="575" vert-adv-y="1000"  />

      
      <glyph glyph-name="uni6f" unicode="&#x6f;" d="M32 230C32 85 144-10 295-10C446-10 558 85 558 230C558 375 446 471 295 471C144 471 32 375 32 230ZM188 230C188 301 236 346 295 346C354 346 402 301 402 230C402 159 354 115 295 115C236 115 188 159 188 230Z"  horiz-adv-x="589" vert-adv-y="1000"  />

      
      <glyph glyph-name="unif2" unicode="&#xf2;" d="M135 688L315 538L400 581L250 741ZM32 230C32 85 144-10 295-10C446-10 558 85 558 230C558 375 446 471 295 471C144 471 32 375 32 230ZM188 230C188 301 236 346 295 346C354 346 402 301 402 230C402 159 354 115 295 115C236 115 188 159 188 230Z"  horiz-adv-x="589" vert-adv-y="1000"  />

      
      <glyph glyph-name="unif3" unicode="&#xf3;" d="M455 688L339 741L189 581L275 538ZM32 230C32 85 144-10 295-10C446-10 558 85 558 230C558 375 446 471 295 471C144 471 32 375 32 230ZM188 230C188 301 236 346 295 346C354 346 402 301 402 230C402 159 354 115 295 115C236 115 188 159 188 230Z"  horiz-adv-x="589" vert-adv-y="1000"  />

      
      <glyph glyph-name="unif4" unicode="&#xf4;" d="M295 624L386 538L492 609L295 749L97 609L204 538ZM32 230C32 85 144-10 295-10C446-10 558 85 558 230C558 375 446 471 295 471C144 471 32 375 32 230ZM188 230C188 301 236 346 295 346C354 346 402 301 402 230C402 159 354 115 295 115C236 115 188 159 188 230Z"  horiz-adv-x="589" vert-adv-y="1000"  />

      
      <glyph glyph-name="unif5" unicode="&#xf5;" d="M99 596L170 534C170 549 179 585 217 585C266 585 302 532 357 532C419 532 475 581 491 618L420 692C400 660 380 639 355 639C299 639 284 691 218 691C154 691 109 645 99 596ZM32 230C32 85 144-10 295-10C446-10 558 85 558 230C558 375 446 471 295 471C144 471 32 375 32 230ZM188 230C188 301 236 346 295 346C354 346 402 301 402 230C402 159 354 115 295 115C236 115 188 159 188 230Z"  horiz-adv-x="589" vert-adv-y="1000"  />

      
      <glyph glyph-name="unif6" unicode="&#xf6;" d="M329 624C329 576 368 542 417 542C466 542 505 576 505 624C505 672 466 706 417 706C368 706 329 672 329 624ZM85 624C85 576 124 542 173 542C222 542 261 576 261 624C261 672 222 706 173 706C124 706 85 672 85 624ZM32 230C32 85 144-10 295-10C446-10 558 85 558 230C558 375 446 471 295 471C144 471 32 375 32 230ZM188 230C188 301 236 346 295 346C354 346 402 301 402 230C402 159 354 115 295 115C236 115 188 159 188 230Z"  horiz-adv-x="589" vert-adv-y="1000"  />

      
      <glyph glyph-name="uni014D" unicode="&#x014D;" d="M109 531L480 531L480 662L109 662ZM32 230C32 85 144-10 295-10C446-10 558 85 558 230C558 375 446 471 295 471C144 471 32 375 32 230ZM188 230C188 301 236 346 295 346C354 346 402 301 402 230C402 159 354 115 295 115C236 115 188 159 188 230Z"  horiz-adv-x="589" vert-adv-y="1000"  />

      
      <glyph glyph-name="uni014F" unicode="&#x014F;" d="M131 677C131 595 190 531 295 531C400 531 459 595 459 677L360 677C360 642 334 618 295 618C256 618 230 642 230 677ZM32 230C32 85 144-10 295-10C446-10 558 85 558 230C558 375 446 471 295 471C144 471 32 375 32 230ZM188 230C188 301 236 346 295 346C354 346 402 301 402 230C402 159 354 115 295 115C236 115 188 159 188 230Z"  horiz-adv-x="589" vert-adv-y="1000"  />

      
      <glyph glyph-name="uni0151" unicode="&#x0151;" d="M202 531L346 714L223 744L109 556ZM388 531L533 714L409 744L296 556ZM32 230C32 85 144-10 295-10C446-10 558 85 558 230C558 375 446 471 295 471C144 471 32 375 32 230ZM188 230C188 301 236 346 295 346C354 346 402 301 402 230C402 159 354 115 295 115C236 115 188 159 188 230Z"  horiz-adv-x="589" vert-adv-y="1000"  />

      
      <glyph glyph-name="uni70" unicode="&#x70;" d="M209-220L209 74C242 17 296-16 366-16C478-16 585 68 585 230C585 392 478 476 366 476C296 476 242 443 209 386L209 460L58 460L58-220ZM426 230C426 158 376 118 316 118C265 118 209 155 209 230C209 305 265 342 316 342C376 342 426 302 426 230Z"  horiz-adv-x="616" vert-adv-y="1000"  />

      
      <glyph glyph-name="uni71" unicode="&#x71;" d="M32 230C32 68 138-16 250-16C321-16 375 17 408 74L408-220L559-220L559 460L408 460L408 386C375 443 321 476 250 476C138 476 32 392 32 230ZM191 230C191 302 241 342 301 342C352 342 408 305 408 230C408 155 352 118 301 118C241 118 191 158 191 230Z"  horiz-adv-x="616" vert-adv-y="1000"  />

      
      <glyph glyph-name="uni72" unicode="&#x72;" d="M341 303L407 433C391 456 357 471 324 471C280 471 237 445 208 402L208 460L59 460L59 0L208 0L208 227C208 293 238 329 282 329C308 329 325 319 341 303Z"  horiz-adv-x="411" vert-adv-y="1000"  />

      
      <glyph glyph-name="uni0155" unicode="&#x0155;" d="M394 681L279 734L129 574L214 531ZM341 303L407 433C391 456 357 471 324 471C280 471 237 445 208 402L208 460L59 460L59 0L208 0L208 227C208 293 238 329 282 329C308 329 325 319 341 303Z"  horiz-adv-x="411" vert-adv-y="1000"  />

      
      <glyph glyph-name="uni0157" unicode="&#x0157;" d="M341 303L407 433C391 456 357 471 324 471C280 471 237 445 208 402L208 460L59 460L59 0L208 0L208 227C208 293 238 329 282 329C308 329 325 319 341 303ZM102-60L14-319L128-342L253-92Z"  horiz-adv-x="411" vert-adv-y="1000"  />

      
      <glyph glyph-name="uni0159" unicode="&#x0159;" d="M233 657L142 742L35 671L233 531L430 671L324 742ZM341 303L407 433C391 456 357 471 324 471C280 471 237 445 208 402L208 460L59 460L59 0L208 0L208 227C208 293 238 329 282 329C308 329 325 319 341 303Z"  horiz-adv-x="411" vert-adv-y="1000"  />

      
      <glyph glyph-name="uni0213" unicode="&#x0213;" d="M69 531L168 531C168 566 194 591 233 591C272 591 298 566 298 531L398 531C398 613 338 678 233 678C128 678 69 613 69 531ZM341 303L407 433C391 456 357 471 324 471C280 471 237 445 208 402L208 460L59 460L59 0L208 0L208 227C208 293 238 329 282 329C308 329 325 319 341 303Z"  horiz-adv-x="411" vert-adv-y="1000"  />

      
      <glyph glyph-name="uni73" unicode="&#x73;" d="M84 167L21 67C83 18 159-19 259-19C369-19 432 32 432 130C432 215 370 245 299 272C231 298 193 306 193 337C193 354 207 366 234 366C275 366 330 339 368 303L422 402C369 440 304 470 225 470C126 470 53 424 53 340C53 252 118 217 183 195C257 171 281 157 281 128C281 106 266 92 236 92C204 92 154 108 84 167Z"  horiz-adv-x="456" vert-adv-y="1000"  />

      
      <glyph glyph-name="uni015B" unicode="&#x015B;" d="M405 681L289 733L139 573L225 531ZM83 175L19 75C77 19 157-19 255-19C367-19 432 25 432 130C432 210 370 243 305 268C247 290 187 305 187 332C187 352 203 360 235 360C272 360 332 338 368 303L422 402C373 440 304 470 225 470C126 470 42 424 42 336C42 256 98 225 158 197C212 172 281 162 281 128C281 105 262 98 235 98C203 98 151 115 83 175Z"  horiz-adv-x="456" vert-adv-y="1000"  />

      
      <glyph glyph-name="uni015D" unicode="&#x015D;" d="M237 616L329 531L435 602L237 742L40 602L146 531ZM83 175L19 75C77 19 157-19 255-19C367-19 432 25 432 130C432 210 370 243 305 268C247 290 187 305 187 332C187 352 203 360 235 360C272 360 332 338 368 303L422 402C373 440 304 470 225 470C126 470 42 424 42 336C42 256 98 225 158 197C212 172 281 162 281 128C281 105 262 98 235 98C203 98 151 115 83 175Z"  horiz-adv-x="456" vert-adv-y="1000"  />

      
      <glyph glyph-name="uni015F" unicode="&#x015F;" d="M82 176L19 75C68 33 124 1 191-12L138-131C173-117 209-114 219-114C250-114 280-121 280-147C280-171 259-182 225-182C205-182 172-174 147-156L102-225C149-255 189-264 245-264C308-264 377-227 377-155C377-89 325-58 285-58C272-58 260-58 249-61L279-18C375-13 432 32 432 130C432 213 370 245 305 270C247 292 193 301 193 336C193 355 210 366 242 366C279 366 332 339 368 304L422 402C369 440 304 470 225 470C126 470 53 425 53 339C53 249 117 220 183 196C235 178 281 165 281 129C281 106 263 94 237 94C210 94 158 110 82 176Z"  horiz-adv-x="456" vert-adv-y="1000"  />

      
      <glyph glyph-name="uni0161" unicode="&#x0161;" d="M225 644L134 729L27 658L225 518L422 658L316 729ZM83 175L19 75C77 19 157-19 255-19C367-19 432 25 432 130C432 210 370 243 305 268C247 290 187 305 187 332C187 352 203 360 235 360C272 360 332 338 368 303L422 402C373 440 304 470 225 470C126 470 42 424 42 336C42 256 98 225 158 197C212 172 281 162 281 128C281 105 262 98 235 98C203 98 151 115 83 175Z"  horiz-adv-x="456" vert-adv-y="1000"  />

      
      <glyph glyph-name="uni0219" unicode="&#x0219;" d="M83 175L19 75C77 19 157-19 255-19C367-19 432 25 432 130C432 210 370 243 305 268C247 290 187 305 187 332C187 352 203 360 235 360C272 360 332 338 368 303L422 402C373 440 304 470 225 470C126 470 42 424 42 336C42 256 98 225 158 197C212 172 281 162 281 128C281 105 262 98 235 98C203 98 151 115 83 175ZM198-67L110-326L225-349L350-99Z"  horiz-adv-x="456" vert-adv-y="1000"  />

      
      <glyph glyph-name="uni74" unicode="&#x74;" d="M5 460L5 335L86 335L86 0L232 0L232 335L313 335L313 460L232 460L232 620L86 620L86 460Z"  horiz-adv-x="318" vert-adv-y="1000"  />

      
      <glyph glyph-name="uni0163" unicode="&#x0163;" d="M5 460L5 335L86 335L86 0L99 0L16-184C51-170 88-168 98-168C129-168 159-174 159-200C159-224 138-235 104-235C84-235 51-228 26-210L-20-278C27-308 68-318 124-318C187-318 256-280 256-208C256-142 204-111 164-111C151-111 138-111 127-114L208 0L232 0L232 335L313 335L313 460L232 460L232 620L86 620L86 460Z"  horiz-adv-x="318" vert-adv-y="1000"  />

      
      <glyph glyph-name="uni0165" unicode="&#x0165;" d="M381 786L293 527L407 504L532 754ZM5 460L5 335L86 335L86 0L232 0L232 335L313 335L313 460L232 460L232 620L86 620L86 460Z"  horiz-adv-x="484" vert-adv-y="1000"  />

      
      <glyph glyph-name="uni021B" unicode="&#x021B;" d="M5 460L5 335L86 335L86 0L232 0L232 335L313 335L313 460L232 460L232 620L86 620L86 460ZM127-60L39-319L153-342L279-92Z"  horiz-adv-x="318" vert-adv-y="1000"  />

      
      <glyph glyph-name="uni75" unicode="&#x75;" d="M218 180L218 460L59 460L59 164C59 55 110-11 224-11C292-11 337 19 364 69L364 0L516 0L516 460L364 460L364 180C364 126 332 96 284 96C235 96 218 127 218 180Z"  horiz-adv-x="575" vert-adv-y="1000"  />

      
      <glyph glyph-name="unif9" unicode="&#xf9;" d="M142 688L322 538L408 581L258 741ZM218 180L218 460L59 460L59 164C59 51 110-11 224-11C290-11 336 18 364 64L364 0L516 0L516 460L364 460L364 180C364 126 332 96 284 96C235 96 218 126 218 180Z"  horiz-adv-x="575" vert-adv-y="1000"  />

      
      <glyph glyph-name="unifa" unicode="&#xfa;" d="M432 688L317 741L167 581L252 538ZM218 180L218 460L59 460L59 164C59 51 110-11 224-11C290-11 336 18 364 64L364 0L516 0L516 460L364 460L364 180C364 126 332 96 284 96C235 96 218 126 218 180Z"  horiz-adv-x="575" vert-adv-y="1000"  />

      
      <glyph glyph-name="unifb" unicode="&#xfb;" d="M287 624L378 538L484 609L287 749L90 609L196 538ZM218 180L218 460L59 460L59 164C59 51 110-11 224-11C290-11 336 18 364 64L364 0L516 0L516 460L364 460L364 180C364 126 332 96 284 96C235 96 218 126 218 180Z"  horiz-adv-x="575" vert-adv-y="1000"  />

      
      <glyph glyph-name="unifc" unicode="&#xfc;" d="M322 620C322 572 361 538 410 538C459 538 498 572 498 620C498 668 459 702 410 702C361 702 322 668 322 620ZM78 620C78 572 117 538 166 538C215 538 254 572 254 620C254 668 215 702 166 702C117 702 78 668 78 620ZM218 180L218 460L59 460L59 164C59 51 110-11 224-11C290-11 336 18 364 64L364 0L516 0L516 460L364 460L364 180C364 126 332 96 284 96C235 96 218 126 218 180Z"  horiz-adv-x="575" vert-adv-y="1000"  />

      
      <glyph glyph-name="uni0169" unicode="&#x0169;" d="M91 596L163 534C163 549 172 585 210 585C259 585 295 532 350 532C412 532 468 581 484 618L413 692C393 660 372 639 347 639C291 639 277 691 211 691C147 691 101 645 91 596ZM218 180L218 460L59 460L59 164C59 51 110-11 224-11C292-11 338 20 364 69L364 0L516 0L516 460L364 460L364 180C364 126 332 96 284 96C235 96 218 126 218 180Z"  horiz-adv-x="575" vert-adv-y="1000"  />

      
      <glyph glyph-name="uni016B" unicode="&#x016B;" d="M102 531L474 531L474 662L102 662ZM218 180L218 460L59 460L59 164C59 51 110-11 224-11C292-11 338 20 364 69L364 0L516 0L516 460L364 460L364 180C364 126 332 96 284 96C235 96 218 126 218 180Z"  horiz-adv-x="575" vert-adv-y="1000"  />

      
      <glyph glyph-name="uni016D" unicode="&#x016D;" d="M123 677C123 595 183 531 288 531C393 531 452 595 452 677L353 677C353 642 327 618 288 618C249 618 222 642 222 677ZM218 180L218 460L59 460L59 164C59 51 110-11 224-11C292-11 338 20 364 69L364 0L516 0L516 460L364 460L364 180C364 126 332 96 284 96C235 96 218 126 218 180Z"  horiz-adv-x="575" vert-adv-y="1000"  />

      
      <glyph glyph-name="uni016F" unicode="&#x016F;" d="M162 646C162 577 217 531 287 531C357 531 413 577 413 646C413 715 357 762 287 762C217 762 162 715 162 646ZM241 646C241 676 262 694 287 694C312 694 334 676 334 646C334 616 312 599 287 599C262 599 241 616 241 646ZM218 180L218 460L59 460L59 164C59 51 110-11 224-11C292-11 338 20 364 69L364 0L516 0L516 460L364 460L364 180C364 126 332 96 284 96C235 96 218 126 218 180Z"  horiz-adv-x="575" vert-adv-y="1000"  />

      
      <glyph glyph-name="uni0171" unicode="&#x0171;" d="M195 531L339 714L216 744L102 556ZM381 531L526 714L402 744L289 556ZM218 180L218 460L59 460L59 164C59 55 110-11 224-11C292-11 337 19 364 69L364 0L516 0L516 460L364 460L364 180C364 126 332 96 284 96C235 96 218 127 218 180Z"  horiz-adv-x="575" vert-adv-y="1000"  />

      
      <glyph glyph-name="uni0173" unicode="&#x0173;" d="M218 180L218 460L59 460L59 164C59 69 97 7 182-8C132-39 92-76 92-126C92-191 143-226 208-226C264-226 294-206 309-186L276-117C262-130 246-137 226-137C202-137 190-125 190-100C190-69 219-34 271-6L270-6C313 5 344 31 364 69L364 0L516 0L516 460L364 460L364 180C364 126 332 96 284 96C235 96 218 127 218 180Z"  horiz-adv-x="575" vert-adv-y="1000"  />

      
      <glyph glyph-name="uni76" unicode="&#x76;" d="M-3 460L264-54L531 460L369 460L264 205L159 460Z"  horiz-adv-x="527" vert-adv-y="1000"  />

      
      <glyph glyph-name="uni77" unicode="&#x77;" d="M-8 460L230-29L379 244L531-29L769 460L610 460L514 224L379 495L247 225L151 460Z"  horiz-adv-x="761" vert-adv-y="1000"  />

      
      <glyph glyph-name="uni0175" unicode="&#x0175;" d="M379 641L470 555L576 626L379 766L181 626L288 555ZM-8 460L230-29L379 244L531-29L769 460L610 460L514 224L379 495L247 225L151 460Z"  horiz-adv-x="761" vert-adv-y="1000"  />

      
      <glyph glyph-name="uni1E81" unicode="&#x1E81;" d="M379 555L465 597L315 757L199 705ZM-8 460L230-29L379 244L531-29L769 460L610 460L514 224L379 495L247 225L151 460Z"  horiz-adv-x="761" vert-adv-y="1000"  />

      
      <glyph glyph-name="uni1E83" unicode="&#x1E83;" d="M379 555L559 705L443 757L293 597ZM-8 460L230-29L379 244L531-29L769 460L610 460L514 224L379 495L247 225L151 460Z"  horiz-adv-x="761" vert-adv-y="1000"  />

      
      <glyph glyph-name="uni1E85" unicode="&#x1E85;" d="M412 637C412 589 452 555 501 555C550 555 589 589 589 637C589 685 550 719 501 719C452 719 412 685 412 637ZM169 637C169 589 208 555 257 555C306 555 345 589 345 637C345 685 306 719 257 719C208 719 169 685 169 637ZM-8 460L230-29L379 244L531-29L769 460L610 460L514 224L379 495L247 225L151 460Z"  horiz-adv-x="761" vert-adv-y="1000"  />

      
      <glyph glyph-name="uni1E87" unicode="&#x1E87;" d="M291 637C291 589 330 555 379 555C428 555 467 589 467 637C467 685 428 719 379 719C330 719 291 685 291 637ZM-8 460L230-29L379 244L531-29L769 460L610 460L514 224L379 495L247 225L151 460Z"  horiz-adv-x="761" vert-adv-y="1000"  />

      
      <glyph glyph-name="uni1E89" unicode="&#x1E89;" d="M-8 460L230-29L379 244L531-29L769 460L610 460L514 224L379 495L247 225L151 460ZM293-171C293-219 332-253 381-253C430-253 469-219 469-171C469-123 430-89 381-89C332-89 293-123 293-171Z"  horiz-adv-x="761" vert-adv-y="1000"  />

      
      <glyph glyph-name="uni78" unicode="&#x78;" d="M354 460L269 339L184 460L10 460L189 236L0 0L174 0L269 133L364 0L532 0L346 236L522 460Z"  horiz-adv-x="532" vert-adv-y="1000"  />

      
      <glyph glyph-name="uni79" unicode="&#x79;" d="M531 460L375 460L267 189L158 460L-9 460L190 37L78-220L231-220Z"  horiz-adv-x="521" vert-adv-y="1000"  />

      
      <glyph glyph-name="unifd" unicode="&#xfd;" d="M422 688L306 741L156 581L242 538ZM531 460L375 460L267 189L158 460L-9 460L190 37L78-220L231-220Z"  horiz-adv-x="521" vert-adv-y="1000"  />

      
      <glyph glyph-name="uniff" unicode="&#xff;" d="M294 612C294 564 333 531 382 531C431 531 471 564 471 612C471 660 431 694 382 694C333 694 294 660 294 612ZM51 612C51 564 90 531 139 531C188 531 227 564 227 612C227 660 188 694 139 694C90 694 51 660 51 612ZM531 460L375 460L267 189L158 460L-9 460L190 37L78-220L231-220Z"  horiz-adv-x="521" vert-adv-y="1000"  />

      
      <glyph glyph-name="uni0177" unicode="&#x0177;" d="M261 616L352 531L458 602L261 742L63 602L169 531ZM531 460L375 460L267 189L158 460L-9 460L190 37L78-220L231-220Z"  horiz-adv-x="521" vert-adv-y="1000"  />

      
      <glyph glyph-name="uni1EF3" unicode="&#x1EF3;" d="M261 531L347 573L197 733L81 681ZM531 460L375 460L267 189L158 460L-9 460L190 37L78-220L231-220Z"  horiz-adv-x="521" vert-adv-y="1000"  />

      
      <glyph glyph-name="uni7a" unicode="&#x7a;" d="M256 322L15 0L475 0L475 138L278 138L508 460L58 460L58 322Z"  horiz-adv-x="522" vert-adv-y="1000"  />

      
      <glyph glyph-name="uni017A" unicode="&#x017A;" d="M455 688L339 741L189 581L275 538ZM256 322L15 0L475 0L475 138L278 138L508 460L58 460L58 322Z"  horiz-adv-x="522" vert-adv-y="1000"  />

      
      <glyph glyph-name="uni017C" unicode="&#x017C;" d="M194 624C194 576 233 542 282 542C331 542 371 576 371 624C371 672 331 706 282 706C233 706 194 672 194 624ZM256 322L15 0L475 0L475 138L278 138L508 460L58 460L58 322Z"  horiz-adv-x="522" vert-adv-y="1000"  />

      
      <glyph glyph-name="uni017E" unicode="&#x017E;" d="M282 656L191 741L85 670L282 530L480 670L374 741ZM257 322L15 0L475 0L475 138L277 138L508 460L58 460L58 322Z"  horiz-adv-x="516" vert-adv-y="1000"  />

      
      <glyph glyph-name="unidf" unicode="&#xdf;" d="M373-12C491-12 604 79 604 193C604 336 454 337 454 401C454 460 541 487 541 611C541 732 434 797 300 797C139 797 46 708 46 552L46-2L199-2L197 550C197 627 233 662 295 662C347 662 384 637 384 582C384 493 294 459 294 386C294 292 446 289 446 192C446 145 411 110 360 110C328 110 291 124 263 144L232 28C266 5 320-12 373-12Z"  horiz-adv-x="603" vert-adv-y="1000"  />

      
      <glyph glyph-name="unie6" unicode="&#xe6;" d="M217-10C320-10 393 25 419 88C455 21 518-10 616-10C732-10 812 35 863 126L728 159C706 121 664 99 614 99C553 99 518 133 510 198L860 198C861 204 862 221 862 237C862 383 778 470 636 470C548 470 478 437 434 375C420 441 367 473 276 473C209 473 141 456 66 420L117 318C155 340 220 358 264 358C317 358 345 331 345 282L345 255C299 272 263 279 223 279C104 279 24 218 24 128C24 41 95-10 217-10ZM610 369C663 369 695 338 700 282L511 282C523 339 557 369 610 369ZM242 89C197 89 177 105 177 138C177 178 204 197 258 197C288 197 318 191 345 179L346 166C336 115 301 89 242 89Z"  horiz-adv-x="896" vert-adv-y="1000"  />

      
      <glyph glyph-name="unif0" unicode="&#xf0;" d="M310-16C463-16 577 95 577 246C577 348 523 464 417 591L505 619L488 674L376 638C339 678 297 719 251 761L139 685C178 656 214 627 246 596L140 562L156 507L293 551C327 515 358 478 385 438C346 461 305 473 261 473C135 473 50 381 50 246C50 93 158-16 310-16ZM313 116C250 116 206 164 206 230C206 297 251 346 313 346C375 346 420 297 420 230C420 164 376 116 313 116Z"  horiz-adv-x="626" vert-adv-y="1000"  />

      
      <glyph glyph-name="unif8" unicode="&#xf8;" d="M32 230C32 150 63 88 115 47L66-18L123-50L171 14C207-2 250-10 295-10C443-10 558 78 558 230C558 312 524 376 470 417L513 474L456 506L413 448C378 463 338 470 295 470C147 470 32 382 32 230ZM175 230C175 301 230 351 295 351C309 351 323 349 336 344L196 157C183 176 175 201 175 230ZM414 230C414 153 360 109 295 109C278 109 262 112 248 118L388 307C404 286 414 260 414 230Z"  horiz-adv-x="546" vert-adv-y="1000"  />

      
      <glyph glyph-name="unife" unicode="&#xfe;" d="M209-220L209 73C245 20 300-10 366-10C478-10 585 75 585 230C585 385 478 470 366 470C300 470 245 440 209 387L209 780L58 780L58-220ZM426 230C426 158 376 112 316 112C265 112 209 155 209 230C209 305 265 348 316 348C376 348 426 302 426 230Z"  horiz-adv-x="616" vert-adv-y="1000"  />

      
      <glyph glyph-name="uni0111" unicode="&#x0111;" d="M32 230C32 75 138-10 250-10C316-10 372 20 408 74L408 0L559 0L559 565L651 565L651 665L559 665L559 780L408 780L408 665L295 665L295 565L408 565L408 386C372 440 316 470 250 470C138 470 32 385 32 230ZM191 230C191 302 241 348 301 348C352 348 408 305 408 230C408 155 352 112 301 112C241 112 191 158 191 230Z"  horiz-adv-x="616" vert-adv-y="1000"  />

      
      <glyph glyph-name="uni0127" unicode="&#x0127;" d="M358 280L358 0L509 0L509 302C509 415 465 477 351 477C283 477 237 446 211 397L211 597L337 597L337 728L211 728L211 780L59 780L59 728L5 728L5 597L59 597L59 0L211 0L211 280C211 334 243 364 291 364C340 364 358 334 358 280Z"  horiz-adv-x="568" vert-adv-y="1000"  />

      
      <glyph glyph-name="uni0131" unicode="&#x0131;" d="M64 460L64 0L211 0L211 460Z"  horiz-adv-x="276" vert-adv-y="1000"  />

      
      <glyph glyph-name="uni0133" unicode="&#x0133;" d="M319 632C319 584 358 551 407 551C456 551 495 584 495 632C495 680 456 714 407 714C358 714 319 680 319 632ZM50 632C50 584 89 551 138 551C187 551 226 584 226 632C226 680 187 714 138 714C89 714 50 680 50 632ZM239-77L178-188C199-208 238-239 306-239C421-239 479-175 479-72L479 460L334 460L334-34C334-81 316-102 286-102C268-102 252-95 239-77ZM64 460L64 0L211 0L211 460Z"  horiz-adv-x="545" vert-adv-y="1000"  />

      
      <glyph glyph-name="uni0138" unicode="&#x0138;" d="M58 460L58 0L203 0L203 234L393 0L571 0L354 270L551 460L371 460L203 298L203 460Z"  horiz-adv-x="577" vert-adv-y="1000"  />

      
      <glyph glyph-name="uni0140" unicode="&#x0140;" d="M59 780L59 0L211 0L211 780ZM252 409C252 358 292 316 347 316C402 316 441 358 441 409C441 460 402 501 347 501C292 501 252 460 252 409Z"  horiz-adv-x="476" vert-adv-y="1000"  />

      
      <glyph glyph-name="uni0142" unicode="&#x0142;" d="M-8 309L59 353L59 0L211 0L211 453L324 528L285 601L211 552L211 780L59 780L59 451L-46 382Z"  horiz-adv-x="270" vert-adv-y="1000"  />

      
      <glyph glyph-name="uni0149" unicode="&#x0149;" d="M111 700L58 445L166 445L269 700ZM384 460L232 460L232 0L384 0L384 280C384 334 415 364 463 364C512 364 530 334 530 280L530 0L688 0L688 296C688 409 638 471 524 471C458 471 412 442 384 396Z"  horiz-adv-x="747" vert-adv-y="1000"  />

      
      <glyph glyph-name="uni014B" unicode="&#x014B;" d="M330-239C449-239 516-178 516-72L516 296C516 412 461 471 351 471C288 471 240 443 211 392L211 460L59 460L59 0L211 0L211 277C211 333 242 364 291 364C337 364 358 338 358 280L358-34C358-79 341-102 310-102C292-102 277-95 263-77L202-188C240-222 282-239 330-239Z"  horiz-adv-x="575" vert-adv-y="1000"  />

      
      <glyph glyph-name="uni0153" unicode="&#x0153;" d="M35 230C35 81 138-10 263-10C354-10 421 39 450 123C482 42 552-10 642-10C741-10 826 50 866 126L732 159C705 121 673 96 619 96C563 96 525 131 516 198L863 198C864 206 865 226 865 234C865 379 768 470 658 470C560 470 484 417 450 335C421 421 355 470 263 470C138 470 35 379 35 230ZM617 369C667 369 696 336 703 281L517 281C525 341 568 369 617 369ZM185 230C185 305 232 345 292 345C350 345 391 305 391 230C391 155 350 115 292 115C232 115 185 155 185 230Z"  horiz-adv-x="900" vert-adv-y="1000"  />

      
      <glyph glyph-name="uni0167" unicode="&#x0167;" d="M20 133L86 133L86 0L232 0L232 133L295 133L295 264L232 264L232 335L313 335L313 460L232 460L232 620L86 620L86 460L5 460L5 335L86 335L86 264L20 264Z"  horiz-adv-x="318" vert-adv-y="1000"  />

      
      <glyph glyph-name="uni0192" unicode="&#x0192;" d="M193-200C288-201 356-135 361-34L380 335L470 335L478 460L387 460L396 591C399 634 416 661 443 661C456 661 470 655 489 636L547 743C497 781 462 795 419 795C325 796 257 731 250 629L242 460L176 460L167 335L236 335L216 4C213-39 195-66 168-66C155-66 142-59 123-40L64-147C114-185 150-200 193-200Z"  horiz-adv-x="600" vert-adv-y="1000"  />

      
      <glyph glyph-name="uni0237" unicode="&#x0237;" d="M-33-77L-94-188C-73-208-35-239 33-239C148-239 207-175 207-72L207 460L61 460L61-34C61-81 43-102 13-102C-5-102-20-95-33-77Z"  horiz-adv-x="271" vert-adv-y="1000"  />

      
      <glyph glyph-name="uni03BC" unicode="&#x03BC;" d="M218 460L59 460L59-320L205-320L205 16C229 0 249-4 271-4C311-4 344 21 364 53L364 0L516 0L516 460L364 460L364 205C364 151 332 121 284 121C235 121 218 151 218 205Z"  horiz-adv-x="570" vert-adv-y="1000"  />

      
      <glyph glyph-name="uni03C0" unicode="&#x03C0;" d="M30 460L30 335L90 335L90 0L232 0L232 335L340 335L340 121C340-1 408-9 536-9L536 108C506 108 482 112 482 178L482 335L562 335L562 460Z"  horiz-adv-x="602" vert-adv-y="1000"  />

      
      <glyph glyph-name="uni0430" unicode="&#x0430;" d="M117 318C139 331 198 358 264 358C314 358 345 333 345 294L345 252C314 266 269 279 223 279C102 279 24 222 24 131C24 40 93-10 191-10C260-10 318 17 345 65L345 0L491 0L491 324C491 419 400 473 276 473C193 473 119 445 66 420ZM177 138C177 174 206 197 258 197C293 197 320 191 345 180C342 110 295 89 242 89C206 89 177 105 177 138Z"  horiz-adv-x="544" vert-adv-y="1000"  />

      
      <glyph glyph-name="uni0431" unicode="&#x0431;" d="M35 290C35 91 150-10 310-10C470-10 574 91 574 230C574 369 471 470 323 470C256 470 203 439 170 383C180 464 219 532 324 572C433 614 516 691 526 780L380 780C370 732 323 699 232 662C75 597 35 477 35 290ZM202 230C202 305 256 346 311 346C370 346 418 301 418 230C418 159 369 115 310 115C251 115 202 159 202 230Z"  horiz-adv-x="608" vert-adv-y="1000"  />

      
      <glyph glyph-name="uni0432" unicode="&#x0432;" d="M75 460L75 0L347 0C452 0 495 56 495 125C495 190 456 221 399 233C444 250 475 284 475 335C475 424 402 460 317 460ZM286 365C315 365 332 346 332 322C332 298 315 280 286 280L221 280L221 365ZM296 186C337 186 352 165 352 141C352 117 337 95 296 95L221 95L221 186Z"  horiz-adv-x="524" vert-adv-y="1000"  />

      
      <glyph glyph-name="uni0433" unicode="&#x0433;" d="M61 460L61 0L210 0L210 335L356 335L356 460Z"  horiz-adv-x="358" vert-adv-y="1000"  />

      
      <glyph glyph-name="uni0453" unicode="&#x0453;" d="M389 681L273 733L123 573L209 531ZM61 460L61 0L210 0L210 335L356 335L356 460Z"  horiz-adv-x="358" vert-adv-y="1000"  />

      
      <glyph glyph-name="uni0434" unicode="&#x0434;" d="M518 0L518-90L660-90L660 119L572 119L350 495L128 119L40 119L40-90L188-90L188 0ZM350 278L421 119L279 119Z"  horiz-adv-x="705" vert-adv-y="1000"  />

      
      <glyph glyph-name="uni0435" unicode="&#x0435;" d="M541 126L405 159C383 121 345 99 291 99C239 99 197 127 187 198L538 198C540 214 539 229 539 237C539 382 452 470 291 470C141 470 55 392 36 279C33 263 32 247 32 230C32 91 125-10 294-10C426-10 495 44 541 126ZM288 369C342 369 370 337 377 282L189 282C198 338 235 369 288 369Z"  horiz-adv-x="575" vert-adv-y="1000"  />

      
      <glyph glyph-name="uni0450" unicode="&#x0450;" d="M122 681L302 531L388 573L238 733ZM541 126L405 159C383 121 345 99 291 99C239 99 197 127 187 198L538 198C540 214 539 229 539 237C539 382 452 470 291 470C141 470 55 392 36 279C33 263 32 247 32 230C32 91 125-10 294-10C426-10 495 44 541 126ZM288 369C342 369 370 337 377 282L189 282C198 338 235 369 288 369Z"  horiz-adv-x="575" vert-adv-y="1000"  />

      
      <glyph glyph-name="uni0451" unicode="&#x0451;" d="M325 612C325 564 364 531 413 531C462 531 501 564 501 612C501 660 462 694 413 694C364 694 325 660 325 612ZM81 612C81 564 120 531 169 531C218 531 257 564 257 612C257 660 218 694 169 694C120 694 81 660 81 612ZM541 126L405 159C383 121 345 99 291 99C239 99 197 127 187 198L538 198C540 214 539 229 539 237C539 382 452 470 291 470C141 470 55 392 36 279C33 263 32 247 32 230C32 91 125-10 294-10C426-10 495 44 541 126ZM288 369C342 369 370 337 377 282L189 282C198 338 235 369 288 369Z"  horiz-adv-x="575" vert-adv-y="1000"  />

      
      <glyph glyph-name="uni0436" unicode="&#x0436;" d="M195 460L20 460L218 266L0 0L175 0L369 238L369 0L512 0L512 238L706 0L881 0L664 266L861 460L686 460L512 295L512 460L369 460L369 295Z"  horiz-adv-x="881" vert-adv-y="1000"  />

      
      <glyph glyph-name="uni0437" unicode="&#x0437;" d="M279-10C401-10 492 46 492 134C492 186 460 225 400 245C449 264 472 297 472 338C472 414 390 470 281 470C163 470 86 404 86 307L224 307C225 338 247 360 282 360C312 360 333 344 333 319C333 294 314 275 272 275L272 202C323 202 350 184 350 150C350 117 320 98 278 98C239 98 214 119 204 158L60 158C70 56 147-10 279-10Z"  horiz-adv-x="536" vert-adv-y="1000"  />

      
      <glyph glyph-name="uni0438" unicode="&#x0438;" d="M207 460L61 460L61-35L385 219L385 0L531 0L531 495L207 241Z"  horiz-adv-x="591" vert-adv-y="1000"  />

      
      <glyph glyph-name="uni0439" unicode="&#x0439;" d="M139 695C139 613 198 549 303 549C408 549 467 613 467 695L368 695C368 660 342 636 303 636C264 636 238 660 238 695ZM207 460L61 460L61-35L385 219L385 0L531 0L531 495L207 241Z"  horiz-adv-x="591" vert-adv-y="1000"  />

      
      <glyph glyph-name="uni045D" unicode="&#x045D;" d="M131 705L311 555L396 598L246 758ZM207 460L61 460L61-35L385 219L385 0L531 0L531 495L207 241Z"  horiz-adv-x="591" vert-adv-y="1000"  />

      
      <glyph glyph-name="uni043A" unicode="&#x043A;" d="M58 460L58 0L203 0L203 234L393 0L571 0L354 270L551 460L371 460L203 298L203 460Z"  horiz-adv-x="577" vert-adv-y="1000"  />

      
      <glyph glyph-name="uni045C" unicode="&#x045C;" d="M484 681L369 733L219 573L304 531ZM58 460L58 0L203 0L203 234L393 0L571 0L354 270L551 460L371 460L203 298L203 460Z"  horiz-adv-x="440" vert-adv-y="1000"  />

      
      <glyph glyph-name="uni043B" unicode="&#x043B;" d="M544 460L83 460L83 198C83 144 50 136 10 136L10 0C176 0 229 51 229 160L229 322L398 322L398 0L544 0Z"  horiz-adv-x="623" vert-adv-y="1000"  />

      
      </font>
</defs>
</svg>
